Вернись ко мне / Return to Me (Бонни Хант / Bonnie Hunt) [2000, США, комедия, мелодрама, BDRip 720p] MVO + Original Eng + Sub Eng

Ответить на тему
 
Автор Сообщение

user ®

Стаж: 7 лет 7 месяцев

Сообщений: 20008

Пост Пост: #1 от 21-Мар-2015 16:27

[Цитировать]

Вернись ко мне / Return to Me
-Страна: США
Жанр: комедия, мелодрама
Год выпуска: 2000
Продолжительность: 01:55:55-Перевод: Профессиональный (многоголосый закадровый)
Cубтитры: английские
Оригинальная аудиодорожка: английский-Режиссер: Бонни Хант / Bonnie Hunt-В ролях: Дэвид Духовны, Минни Драйвер, Кэррол О'Коннор, Роберт Лоджа, Бонни Хант, Дэвид Алан Грайр, Джоэли Ричардсон, Эдди Джонс, Джеймс Белуши, Марианн Мюллерлейл-Описание:
По роману Кита Уотерхауса.
Потребовалось немало усилий, чтобы заставить Боба, недавно овдовевшего архитектора, назначить «свидание вслепую`. И, тем не менее, оно состоялось в незатейливой ирландско-итальянской забегаловке. Он был буквально сражен, но не дамой, с которой было назначено свидание, а остроумием официантки Грейс.
Не безпомощи дедушки, озабоченного замужеством внучки, Грейс и Боб встречаются. Их отношения расцветают, и кажется, что у наших влюбленных голубков все будет как нельзя лучше, пока не всплывает невероятная правда, такая, что легко может разбить их сердца навсегда.-Доп. информация: аудио дорожка взята [url=http://***/forum/viewtopic.php?t=2092077]http://***/forum/viewtopic.php?t=2092077[/url]-Сэмпл: Скачать-Тип релиза: BDRip 720p
Контейнер: MKV
Видео: 1280×694 (1.85:1); 7 277 Kbps; 23.976 fps; 0.637 bpp
Аудио 1: Russian; AC3; 48.0 KHz; 2ch; 192 kbps
Аудио 2: English; AC3; 48.0 KHz; 6ch; 640kbps
Аудио 3: English; AAC; 48.0 KHz; 2ch; 81.6 Kbps | Commentary with Bonnie Hunt and Don Lake
MediaInfo
Format : Matroska
Format version : Version 4 / Version 2
File size : 6.75 GiB
Duration : 1h 55mn
Overall bit rate : 8 339 Kbps
Movie name : Return.to.Me.2000.720p.BluRay.DD5.1.x264-VietHD
Encoded date : UTC 2015-03-20 15:34:08
Writing application : mkvmerge v7.2.0 ('On Every Street') 64bit built on Sep 13 2014 15:52:10
Writing library : libebml v1.3.0 + libmatroska v1.4.1
_STATISTICS_WRITING_APP : mkvmerge v7.2.0 ('On Every Street') 64bit built on Sep 13 2014 15:52:10
_STATISTICS_WRITING_DATE_UTC : 2015-03-20 15:34:08
_STATISTICS_TAGS : BPS DURATION NUMBER_OF_FRAMES NUMBER_OF_BYTES
DURATION : 01:55:55.488000000
NUMBER_OF_FRAMES : 217359
NUMBER_OF_BYTES : 166931712
Video
ID : 1
Format : AVC
Format/Info : Advanced Video Codec
Format profile : High@L4.1
Format settings, CABAC : Yes
Format settings, ReFrames : 9 frames
Codec ID : V_MPEG4/ISO/AVC
Duration : 1h 55mn
Width : 1 280 pixels
Height : 694 pixels
Display aspect ratio : 1.85:1
Frame rate mode : Constant
Frame rate : 23.976 fps
Color space : YUV
Chroma subsampling : 4:2:0
Bit depth : 8 bits
Scan type : Progressive
Writing library : x264 core 146 r0+2584 6cf85c6 t_mod_Custom [8-bit@all ]
Encoding settings : cabac=1 / ref=9 / deblock=1:-3:-3 / analyse=0x3:0x133 / me=umh / subme=10 / psy=1 / fade_compensate=0.00 / psy_rd=1.10:0.00 / mixed_ref=1 / me_range=24 / chroma_me=1 / trellis=2 / 8x8dct=1 / cqm=0 / deadzone=21,11 / fast_pskip=0 / chroma_qp_offset=-2 / threads=12 / lookahead_threads=3 / sliced_threads=0 / nr=0 / decimate=0 / interlaced=0 / bluray_compat=0 / constrained_intra=0 / fgo=0 / bframes=11 / b_pyramid=2 / b_adapt=2 / b_bias=0 / direct=3 / weightb=1 / open_gop=0 / weightp=2 / keyint=250 / keyint_min=23 / scenecut=40 / intra_refresh=0 / rc_lookahead=60 / rc=crf / mbtree=0 / crf=17.2000 / qcomp=0.65 / qpmin=0:0:0 / qpmax=69:69:69 / qpstep=4 / vbv_maxrate=62500 / vbv_bufsize=78125 / crf_max=0.0 / nal_hrd=none / filler=0 / ip_ratio=1.30 / pb_ratio=1.20 / aq=3:0.60 / aq-sensitivity=10.00 / aq-factor=1.00:1.00:1.00 / aq2=0 / aq3=0
Language : English
Default : Yes
Forced : No
Matrix coefficients : BT.709
_STATISTICS_WRITING_APP : mkvmerge v7.2.0 ('On Every Street') 64bit built on Sep 13 2014 15:52:10
_STATISTICS_WRITING_DATE_UTC : 2015-03-20 15:34:08
_STATISTICS_TAGS : BPS DURATION NUMBER_OF_FRAMES NUMBER_OF_BYTES
DURATION : 01:55:55.616000000
NUMBER_OF_FRAMES : 166768
NUMBER_OF_BYTES : 6453753389
Audio #1
ID : 2
Format : AC-3
Format/Info : Audio Coding 3
Mode extension : CM (complete main)
Format settings, Endianness : Big
Codec ID : A_AC3
Duration : 1h 55mn
Bit rate mode : Constant
Bit rate : 192 Kbps
Channel(s) : 2 channels
Channel positions : Front: L R
Sampling rate : 48.0 KHz
Bit depth : 16 bits
Compression mode : Lossy
Stream size : 159 MiB (2%)
Title : MVO
Language : Russian
Default : Yes
Forced : No
Audio #2
ID : 3
Format : AC-3
Format/Info : Audio Coding 3
Mode extension : CM (complete main)
Format settings, Endianness : Big
Codec ID : A_AC3
Duration : 1h 55mn
Bit rate mode : Constant
Bit rate : 640 Kbps
Channel(s) : 6 channels
Channel positions : Front: L C R, Side: L R, LFE
Sampling rate : 48.0 KHz
Bit depth : 16 bits
Compression mode : Lossy
Stream size : 531 MiB (8%)
Language : English
Default : No
Forced : No
Audio #3
ID : 4
Format : AAC
Format/Info : Advanced Audio Codec
Format profile : LC
Codec ID : A_AAC
Duration : 1h 55mn
Channel(s) : 2 channels
Channel positions : Front: L R
Sampling rate : 48.0 KHz
Compression mode : Lossy
Delay relative to video : 20ms
Language : English
Default : No
Forced : No
Text
ID : 5
Format : UTF-8
Codec ID : S_TEXT/UTF8
Codec ID/Info : UTF-8 Plain Text
Language : English
Default : No
Forced : No
Скриншоты
Скачать

Скачать торрент!

Как скачивать? · Что такое торрент? · Рейтинг и ограничения

Сайт не распространяет и не хранит электронные версии произведений, а лишь предоставляет доступ к создаваемому пользователями каталогу ссылок на торрент-файлы, которые содержат только списки хеш-сумм

[Профиль] [ЛС]
Показать сообщения:    
Ответить на тему

Текущее время: Сегодня 17:45

Часовой пояс: GMT + 4



Вы не можете начинать темы
Вы не можете отвечать на сообщения
Вы не можете редактировать свои сообщения
Вы не можете удалять свои сообщения
Вы не можете голосовать в опросах
Вы не можете прикреплять файлы к сообщениям
Вы не можете скачивать файлы