Уолтер / Walter (Анна Мастро / Anna Mastro) [2015, США , драма, комедия, WEBRip] DVO

Ответить на тему
 
Автор Сообщение

user ®

Стаж: 7 лет 7 месяцев

Сообщений: 20008

Пост Пост: #1 от 21-Мар-2015 10:15

[Цитировать]

Уолтер / Walter

Страна: США
Жанр: драма, комедия
Год выпуска: 2015
Продолжительность: 01:51:47
Перевод: Любительский (двухголосый закадровый)
Оригинальная аудиодорожка: нет
Русские субтитры: нет
Режиссер: Анна Мастро / Anna Mastro
В ролях: Эндрю Дж. Уэст, Уильям Х. Мэйси, Джастин Кирк, Нив Кэмпбелл, Брайан Дж. Уайт, Ливэн Рамбин, Майло Вентимилья, Джим Гэффиган, Питер Фачинелли, Вирджиния Мэдсен
Описание: Уолтер Гари Бенджамин работает билетером в местном кинотеатре. Когда Уолтеру было десять лет, он заключил сделку с Богом, что будет определять путь каждого, с кем вступает в контакт, — попадут они в рай или в ад. В обмен на то, что его отец отправится в рай. Однажды появляется таинственный Грег, который ставит под сомнение смысл жизни Уолтера…

Качество: WEBRip
Контейнер: AVI
Видео: 720x304 (2.37:1), 23.976 fps, XviD MPEG-4 ~1004 kbps avg, 0.19 bit/pixel
Аудио: 48 kHz, MPEG Layer 3, 2 ch, ~128.00 kbps avg

MI
Общее
Полное имя : C:\Users\Пользователь\Downloads\Уолтер_2015_WEBRip _700.avi
Формат : AVI
Формат/Информация : Audio Video Interleave
Размер файла : 704 Мбайт
Продолжительность : 1 ч. 26 м.
Общий поток : 1142 Кбит/сек
Программа кодирования : VirtualDubMod 1.5.10.3 | www.virtualdub-fr.org || (build 2550/release)
Библиотека кодирования : VirtualDubMod build 2550/release
Видео
Идентификатор : 0
Формат : MPEG-4 Visual
Профиль формата : Advanced Simple@L5
Параметр BVOP формата : 2
Параметр QPel формата : Нет
Параметр GMC формата : Без точки перехода
Идентификатор кодека : XVID
Идентификатор кодека/Подсказка : XviD
Продолжительность : 1 ч. 26 м.
Битрейт : 1005 Кбит/сек
Ширина : 720 пикселей
Высота : 304 пикселя
Соотношение сторон : 2,35:1
Частота кадров : 23,976 кадра/сек
Цветовое пространство : YUV
Субдискретизация насыщенности : 4:2:0
Битовая глубина : 8 бит
Тип развёртки : Прогрессивная
Метод сжатия : С потерями
Бит/(Пиксели*Кадры) : 0.192
Размер потока : 619 Мбайт (88%)
Библиотека кодирования : XviD 73
Аудио
Идентификатор : 1
Формат : MPEG Audio
Версия формата : Version 1
Профиль формата : Layer 3
Режим : Joint stereo
Идентификатор кодека : 55
Идентификатор кодека/Подсказка : MP3
Продолжительность : 1 ч. 26 м.
Вид битрейта : Постоянный
Битрейт : 128 Кбит/сек
Каналы : 2 канала
Частота : 48,0 КГц
Метод сжатия : С потерями
Размер потока : 78,8 Мбайт (11%)
Выравнивание : Соединение по промежуткам
Продолжительность промежутка : 42 мс. (1,00 видеокадр)
Время предзагрузки промежутка : 504 мс.
Библиотека кодирования : L3.99r
Настройки программы : -m j -V 4 -q 2 -lowpass 17 -b 128
Скриншоты
Скачать

Скачать торрент!

Как скачивать? · Что такое торрент? · Рейтинг и ограничения

Сайт не распространяет и не хранит электронные версии произведений, а лишь предоставляет доступ к создаваемому пользователями каталогу ссылок на торрент-файлы, которые содержат только списки хеш-сумм

[Профиль] [ЛС]
Показать сообщения:    
Ответить на тему

Текущее время: Сегодня 18:11

Часовой пояс: GMT + 4



Вы не можете начинать темы
Вы не можете отвечать на сообщения
Вы не можете редактировать свои сообщения
Вы не можете удалять свои сообщения
Вы не можете голосовать в опросах
Вы не можете прикреплять файлы к сообщениям
Вы не можете скачивать файлы