Очень страшное кино 5 / Scary MoVie (Малкольм Д. Ли / Malcolm D. Lee) [2013, США, комедия, BDRip 720p] Dub + Sub Eng + Original Eng

Ответить на тему
 
Автор Сообщение

user ®

Стаж: 7 лет 7 месяцев

Сообщений: 20008

Пост Пост: #1 от 20-Мар-2015 19:21

[Цитировать]

Очень страшное кино 5 / Scary MoVie
«Зло поднимается. Готовьте контрацептивы»
Страна: США
Студия: Brad Grey Pictures, Dimension Films
Жанр: комедия
Год выпуска: 2013
Продолжительность: 01:28:07
Перевод: Профессиональный (дублированный) лицензия BD
Cубтитры: английские
Оригинальная аудиодорожка: английский--Режиссер: Малкольм Д. Ли / Malcolm D. Lee--В ролях: Эшли Тисдейл, Саймон Рекс, Эрика Эш, Катрина Боуден, Терри Крюс, Хэзер Локлир, Жан-Поль Мано, Джерри О’Коннелл, Молли Шеннон, Кейт Уолш, Снуп Догг, Майк Тайсон, Чарли Шин, Линдси Лохан...--Описание: Молодая супружеская пара Дэн и Джоди начинают замечать некоторые странные активности, когда они приносят своего новорожденного ребенка Айдена домой из больницы. Но когда нарастают проблемы и хаос в работе Джоди и карьере Дэна, они понимают, что их семью преследуют гнусные демоны. Вместе с советом сертифицированных специалистов и при помощи многочисленных камер, они должны выяснить, как избавиться от этих существ, пока не стало слишком поздно...--Доп. информация: Kinopoisk | IMDB | Sample |--Тип релиза: BDRip 720p
Контейнер: MKV
Видео: MPEG-4 AVC, 1280x720, (16:9) 7 230 kbps avg, 23.976 fps
Аудио 1: 48 kHz, DTS, 3/2 (L,C,R,l,r) + LFE ch, 1509 kbps
Аудио 2: 48 kHz, DTS, 3/2 (L,C,R,l,r) + LFE ch, 1509 kbps
Формат субтитров: softsub (SRT)
MediaInfo
General
Unique ID : 175802524417459236520044554241113818700 (0x844255A8D562893B8B2FD7327473864C)
Complete name : Scary MoVie.mkv
Format : Matroska
Format version : Version 4 / Version 2
File size : 6.44 GiB
Duration : 1h 28mn
Overall bit rate : 10.5 Mbps
Movie name : Очень страшное кино 5 / Scary MoVie (2013)
Encoded date : UTC 2015-03-19 14:38:14
Writing application : mkvmerge v7.7.0 ('Six Voices') 64bit built on Feb 28 2015 23:39:33
Writing library : libebml v1.3.1 + libmatroska v1.4.2
Attachements : cover.png
DURATION : 01:27:39.505000000
NUMBER_OF_FRAMES : 1285
NUMBER_OF_BYTES : 47290
_STATISTICS_WRITING_APP : mkvmerge v7.7.0 ('Six Voices') 64bit built on Feb 28 2015 23:39:33
_STATISTICS_WRITING_DATE_UT : 2015-03-19 14:38:14
_STATISTICS_TAGS : BPS DURATION NUMBER_OF_FRAMES NUMBER_OF_BYTES
Video
ID : 1
Format : AVC
Format/Info : Advanced Video Codec
Format profile : High@L4.1
Format settings, CABAC : Yes
Format settings, ReFrames : 9 frames
Codec ID : V_MPEG4/ISO/AVC
Duration : 1h 28mn
Bit rate : 7 231 Kbps
Nominal bit rate : 7 676 Kbps
Width : 1 280 pixels
Height : 720 pixels
Display aspect ratio : 16:9
Frame rate mode : Constant
Frame rate : 23.976 fps
Color space : YUV
Chroma subsampling : 4:2:0
Bit depth : 8 bits
Scan type : Progressive
Bits/(Pixel*Frame) : 0.327
Stream size : 4.45 GiB (69%)
Writing library : x264 core 135 r2345 f0c1c53
Encoding settings : cabac=1 / ref=9 / deblock=1:-3:-3 / analyse=0x3:0x133 / me=tesa / subme=11 / psy=1 / psy_rd=1.05:0.00 / mixed_ref=1 / me_range=16 / chroma_me=1 / trellis=2 / 8x8dct=1 / cqm=0 / deadzone=21,11 / fast_pskip=0 / chroma_qp_offset=-2 / threads=12 / lookahead_threads=2 / sliced_threads=0 / nr=0 / decimate=1 / interlaced=0 / bluray_compat=0 / constrained_intra=0 / bframes=9 / b_pyramid=2 / b_adapt=2 / b_bias=0 / direct=3 / weightb=1 / open_gop=0 / weightp=2 / keyint=250 / keyint_min=23 / scenecut=40 / intra_refresh=0 / rc=abr / mbtree=0 / bitrate=7676 / ratetol=1.0 / qcomp=0.75 / qpmin=0 / qpmax=69 / qpstep=4 / ip_ratio=1.40 / pb_ratio=1.30 / aq=1:0.70
Language : English
Default : Yes
Forced : No
Matrix coefficients : BT.709
Color range : Limited
DURATION : 01:28:07.282000000
NUMBER_OF_FRAMES : 126768
NUMBER_OF_BYTES : 4913710184
_STATISTICS_WRITING_APP : mkvmerge v7.7.0 ('Six Voices') 64bit built on Feb 28 2015 23:39:33
_STATISTICS_WRITING_DATE_UT : 2015-03-19 14:38:14
_STATISTICS_TAGS : BPS DURATION NUMBER_OF_FRAMES NUMBER_OF_BYTES
Audio #1
ID : 2
Format : DTS
Format/Info : Digital Theater Systems
Mode : 16
Format settings, Endianness : Big
Codec ID : A_DTS
Duration : 1h 28mn
Bit rate mode : Constant
Bit rate : 1 510 Kbps
Channel(s) : 6 channels
Channel positions : Front: L C R, Side: L R, LFE
Sampling rate : 48.0 KHz
Bit depth : 16 bits
Compression mode : Lossy
Stream size : 952 MiB (14%)
Title : Дубляж
Language : Russian
Default : Yes
Forced : Yes
Audio #2
ID : 3
Format : DTS
Format/Info : Digital Theater Systems
Mode : 16
Format settings, Endianness : Big
Codec ID : A_DTS
Duration : 1h 28mn
Bit rate mode : Constant
Bit rate : 1 509 Kbps
Channel(s) : 6 channels
Channel positions : Front: L C R, Side: L R, LFE
Sampling rate : 48.0 KHz
Bit depth : 24 bits
Compression mode : Lossy
Stream size : 951 MiB (14%)
Language : English
Default : No
Forced : No
Text
ID : 4
Format : UTF-8
Codec ID : S_TEXT/UTF8
Codec ID/Info : UTF-8 Plain Text
Language : English
Default : No
Forced : No
Menu
00:00:00.000 : en:00:00:00.000
00:04:50.707 : en:00:04:50.707
00:09:22.228 : en:00:09:22.228
00:15:52.785 : en:00:15:52.785
00:23:17.479 : en:00:23:17.479
00:30:28.493 : en:00:30:28.493
00:37:44.804 : en:00:37:44.804
00:44:14.277 : en:00:44:14.277
00:50:41.830 : en:00:50:41.830
00:58:58.577 : en:00:58:58.577
01:03:23.091 : en:01:03:23.091
01:09:11.689 : en:01:09:11.689
01:13:14.974 : en:01:13:14.974
01:21:06.487 : en:01:21:06.487
Скриншоты
Скачать

Скачать торрент!

Как скачивать? · Что такое торрент? · Рейтинг и ограничения

Сайт не распространяет и не хранит электронные версии произведений, а лишь предоставляет доступ к создаваемому пользователями каталогу ссылок на торрент-файлы, которые содержат только списки хеш-сумм

[Профиль] [ЛС]
Показать сообщения:    
Ответить на тему

Текущее время: Сегодня 13:39

Часовой пояс: GMT + 4



Вы не можете начинать темы
Вы не можете отвечать на сообщения
Вы не можете редактировать свои сообщения
Вы не можете удалять свои сообщения
Вы не можете голосовать в опросах
Вы не можете прикреплять файлы к сообщениям
Вы не можете скачивать файлы