Снова 20 / 20 Once Again (Лестэ Чэнь / Leste Chen) [2014, Китай, романтика, комедия, HDRip] DVO (Kedra & Hydra) + Sub Rus

Ответить на тему
 
Автор Сообщение

user ®

Стаж: 13 лет

Сообщений: 15071

Пост Пост: #1 от 19-Мар-2015 21:45

[Цитировать]

Снова 20 / 20 Once Again
Страна: Китай
Жанр: романтика, комедия
Год выпуска: 2014
Продолжительность: 2ч:12мм
Перевод: Любительский (двухголосый закадровый) Kedra & Hydra
Cубтитры: русские
Оригинальная аудиодорожка: да
Режиссер: Лестэ Чэнь \ Leste Chen
В ролях: Ах Леи Гуа - Шэн Мэн Цзюнь
Ян Цзы Шан - Мэн Ли Цзюнь
Уилсон Чен - Тан Цзы Мин
ЛуХан - Сян Цянь Цзинь
Описание: Шэн Мэн Цзюнь (Ах Леи Гуа) – своенравная 70-летняя вдова. Её семья решает отправить женщину в дом престарелых. Чувствуя себя несчастной и никому не нужной, Шэн Мэн Цзюнь решает сделать свой последний снимок. Выйдя из фотостудии и увидев свое отображение, она понимает, что снова молода и красива. Ей снова 20 лет! Не желая упускать подаренный ей второй шанс, Шэн Мэн Цзюнь решает осуществить мечту всей своей жизни – стать певицей. Для начала она меняет своё имя на Мэн Ли Цзюнь (Ян Цзы Шан). Будет ли успешной её вторая попытка?
Сэмпл: http://files.webfile.ru/file/f51a44afc154dc782120136b51b4ebe8
Качество видео: HDRip
Формат видео: AVI
Видео: XviD, 720x304, 2.35:1, 25.000 fps, 1862 Kbps
Аудио: АС3, 48 kHz, 192 kbps, 2 канала (Russian, Kedra & Hydra)
Аудио 2: AC3, 48 kHz, 192 kbps, 2 channels (Chinese, Original)
Формат субтитров: softsub (SSA/ASS)
Доп. информация о субтитрах: ФСГ WAO
MediaInfo
Формат : AVI
Формат/Информация : Audio Video Interleave
Размер файла : 2,09 Гбайт
Продолжительность : 2 ч. 12 м.
Общий поток : 2261 Кбит/сек
Название фильма : Miss Granny 2015 [Kedra & Hydra]
Программа кодирования : VirtualDubMod 1.5.10.2 (build 2542/release)
Библиотека кодирования : VirtualDubMod build 2542/release
Видео
Идентификатор : 0
Формат : MPEG-4 Visual
Профиль формата : Advanced Simple@L5
Параметр BVOP формата : 2
Параметр QPel формата : Нет
Параметр GMC формата : Без точки перехода
Параметр матрицы формата : Default (MPEG)
Идентификатор кодека : DX50
Идентификатор кодека/Подсказка : DivX 5
Продолжительность : 2 ч. 12 м.
Битрейт : 1862 Кбит/сек
Ширина : 720 пикселей
Высота : 304 пикселя
Соотношение сторон : 2,35:1
Частота кадров : 25,000 кадров/сек
Цветовое пространство : YUV
Субдискретизация насыщенности : 4:2:0
Битовая глубина : 8 бит
Тип развёртки : Прогрессивная
Метод сжатия : С потерями
Бит/(Пиксели*Кадры) : 0.340
Размер потока : 1,72 Гбайт (82%)
Библиотека кодирования : XviD 73
Аудио #1
Идентификатор : 1
Формат : AC-3
Формат/Информация : Audio Coding 3
Расширение режима : CM (complete main)
Параметр Endianness формата : Big
Идентификатор кодека : 2000
Продолжительность : 2 ч. 12 м.
Вид битрейта : Постоянный
Битрейт : 192 Кбит/сек
Каналы : 2 канала
Расположение каналов : Front: L R
Частота : 48,0 КГц
Битовая глубина : 16 бит
Метод сжатия : С потерями
Размер потока : 181 Мбайт (8%)
Выравнивание : Разделение по промежуткам
Продолжительность промежутка : 40 мс. (1,00 видеокадр)
Время предзагрузки промежутка : 500 мс.
Заголовок : Russian [Kedra & Hydra]
Аудио #2
Идентификатор : 2
Формат : AC-3
Формат/Информация : Audio Coding 3
Расширение режима : CM (complete main)
Параметр Endianness формата : Big
Идентификатор кодека : 2000
Продолжительность : 2 ч. 12 м.
Вид битрейта : Постоянный
Битрейт : 192 Кбит/сек
Каналы : 2 канала
Расположение каналов : Front: L R
Частота : 48,0 КГц
Битовая глубина : 16 бит
Метод сжатия : С потерями
Размер потока : 181 Мбайт (8%)
Выравнивание : Разделение по промежуткам
Продолжительность промежутка : 40 мс. (1,00 видеокадр)
Время предзагрузки промежутка : 500 мс.
Заголовок : Chinese [Original]
Скриншот c названием фильма Скриншоты
Скачать

Скачать торрент! Снова 20 / 20 Once Again (Лестэ Чэнь / Leste Chen) [2014, Китай, романтика, комедия, HDRip] DVO (Kedra & Hydra) + Sub Rus

Как скачивать? · Что такое торрент? · Рейтинг и ограничения

Сайт не распространяет и не хранит электронные версии произведений, а лишь предоставляет доступ к создаваемому пользователями каталогу ссылок на торрент-файлы, которые содержат только списки хеш-сумм

[Профиль] [ЛС]
Показать сообщения:    
Ответить на тему

Текущее время: Сегодня 20:31

Часовой пояс: GMT + 4



Вы не можете начинать темы
Вы не можете отвечать на сообщения
Вы не можете редактировать свои сообщения
Вы не можете удалять свои сообщения
Вы не можете голосовать в опросах
Вы не можете прикреплять файлы к сообщениям
Вы не можете скачивать файлы