Отцовство / Vaterfreuden / Joy of Fatherhood (Маттиас Швайгхефер / Matthias Schweighöfer, Торстен Кюнстлер / Torsten Künstler) [2014, Германия, мелодрама, комедия, BDRip 720p] VO (Виктор Береговых) + Original (Ger) + Sub (Rus, Eng, Ger)

Ответить на тему
 
Автор Сообщение

user ®

Стаж: 7 лет 7 месяцев

Сообщений: 20008

Пост Пост: #1 от 19-Мар-2015 18:39

[Цитировать]

Отцовство / Vaterfreuden / Joy of Fatherhood Страна: Германия
Жанр: мелодрама, комедия
Год выпуска: 2014
Продолжительность: 01:50:29
Перевод: Одноголосый закадровый Виктор Береговых
Cубтитры: английские, немецкие (SDH), русские ([url=http://***/forum/profile.php?mode=viewprofile&u=21131053]М. Васильев[/url])
Оригинальная аудиодорожка: немецкий
Режиссер: Маттиас Швайгхефер / Matthias Schweighöfer, Торстен Кюнстлер / Torsten Künstler
В ролях: Маттиас Швайгхефер, Изабелл Поллак, Фридрих Мюке, Том Бек, Natalia Belitski, Lina Hüesker, Мориц Грове, Александр Куон, Фиона Ноймайр, Катарина Шюттлер
Описание:
Феликс — тридцатилетний холостяк, гоняющий по Мюнхену на велосипеде, иногда видящийся со знакомой девушкой ради коротких, но продуктивных встреч. Все его друзья уже давно ведут семейную жизнь, имеют по паре-тройке детей и погрязли в быту. Жизнь Феликса вполне его устраивает, до того момента, как к нему вваливается его незадачливый младший брат со своим зверьком. И вот тут-то жизнь парня резко меняется. Зверек умудряется в буквальном смысле лишить парня возможности быть отцом.
- || -Тип релиза: BDRip 720p (рип от REDJOHN)

Контейнер: MKV
Видео: AVC (x264), 1280x544 (2.35:1) at 24,000 fps, 4986 Кbps, 0.298 bpp
Аудио 1: AC3; 192 Kbps; CBR; 2 ch; 48 khz | VO - Виктор Береговых |
Аудио 2: DTS; 1536 Kbps; CBR; 6 ch; 48 khz | Немецкий |
Формат субтитров: softsub (SRT)
Скриншоты || x264 Info || MediaInfo || Notes
MediaInfo
General
Unique ID                                : 233756058285060916792931370838685084376 (0xAFDBC77BD599EDD3A2AD3A50CFDB6AD8)
Complete name                            : Отцовство.2014.L1.720p.BluRay.x264-REDJOHN.mkv
Format                                   : Matroska
Format version                           : Version 4 / Version 2
File size                                : 5.27 GiB
Duration                                 : 1h 50mn
Overall bit rate                         : 6 823 Kbps
Movie name                               : Vaterfreuden [2014] [720p] VO
Encoded date                             : UTC 2015-03-18 14:15:49
Writing application                      : mkvmerge v7.7.0 ('Six Voices') 32bit built on Feb 28 2015 23:23:00
Writing library                          : libebml v1.3.1 + libmatroska v1.4.2
Video
ID                                       : 1
Format                                   : AVC
Format/Info                              : Advanced Video Codec
Format profile                           : High@L4.1
Format settings, CABAC                   : Yes
Format settings, ReFrames                : 10 frames
Codec ID                                 : V_MPEG4/ISO/AVC
Duration                                 : 1h 50mn
Bit rate                                 : 4 986 Kbps
Width                                    : 1 280 pixels
Height                                   : 544 pixels
Display aspect ratio                     : 2.35:1
Frame rate mode                          : Constant
Frame rate                               : 24.000 fps
Color space                              : YUV
Chroma subsampling                       : 4:2:0
Bit depth                                : 8 bits
Scan type                                : Progressive
Bits/(Pixel*Frame)                       : 0.298
Stream size                              : 3.85 GiB (73%)
Title                                    : profile.php?mode=viewprofile&u=22488948
Writing library                          : x264 core 142 r2479kMod dd79a61
Encoding settings                        : cabac=1 / ref=10 / deblock=1:-3:-3 / analyse=0x3:0x133 / me=umh / subme=10 / psy=1 / fade_compensate=0.00 / psy_rd=0.95:0.00 / mixed_ref=1 / me_range=24 / chroma_me=1 / trellis=2 / 8x8dct=1 / cqm=0 / deadzone=21,11 / fast_pskip=0 / chroma_qp_offset=-2 / threads=12 / lookahead_threads=2 / sliced_threads=0 / nr=0 / decimate=0 / interlaced=0 / bluray_compat=0 / constrained_intra=0 / fgo=0 / bframes=8 / b_pyramid=2 / b_adapt=2 / b_bias=0 / direct=3 / weightb=1 / open_gop=0 / weightp=2 / keyint=240 / keyint_min=22 / scenecut=40 / intra_refresh=0 / rc_lookahead=60 / rc=crf / mbtree=0 / crf=15.8000 / qcomp=0.65 / qpmin=0 / qpmax=69 / qpstep=4 / vbv_maxrate=62500 / vbv_bufsize=78125 / crf_max=0.0 / nal_hrd=none / filler=0 / ip_ratio=1.30 / pb_ratio=1.20 / aq=3:0.75
Language                                 : German
Default                                  : Yes
Forced                                   : No
Audio #1
ID                                       : 2
Format                                   : AC-3
Format/Info                              : Audio Coding 3
Mode extension                           : CM (complete main)
Format settings, Endianness              : Big
Codec ID                                 : A_AC3
Duration                                 : 1h 50mn
Bit rate mode                            : Constant
Bit rate                                 : 192 Kbps
Channel(s)                               : 2 channels
Channel positions                        : Front: L R
Sampling rate                            : 48.0 KHz
Bit depth                                : 16 bits
Compression mode                         : Lossy
Stream size                              : 152 MiB (3%)
Title                                    : VO [Виктор Береговых]
Language                                 : Russian
Default                                  : Yes
Forced                                   : No
Audio #2
ID                                       : 3
Format                                   : DTS
Format/Info                              : Digital Theater Systems
Mode                                     : 16
Format settings, Endianness              : Big
Codec ID                                 : A_DTS
Duration                                 : 1h 50mn
Bit rate mode                            : Constant
Bit rate                                 : 1 509 Kbps
Channel(s)                               : 6 channels
Channel positions                        : Front: L C R, Side: L R, LFE
Sampling rate                            : 48.0 KHz
Bit depth                                : 24 bits
Compression mode                         : Lossy
Stream size                              : 1.16 GiB (22%)
Language                                 : German
Default                                  : No
Forced                                   : No
Text #1
ID                                       : 4
Format                                   : UTF-8
Codec ID                                 : S_TEXT/UTF8
Codec ID/Info                            : UTF-8 Plain Text
Language                                 : German
Default                                  : No
Forced                                   : No
Text #2
ID                                       : 5
Format                                   : UTF-8
Codec ID                                 : S_TEXT/UTF8
Codec ID/Info                            : UTF-8 Plain Text
Language                                 : English
Default                                  : No
Forced                                   : No
Text #3
ID                                       : 6
Format                                   : UTF-8
Codec ID                                 : S_TEXT/UTF8
Codec ID/Info                            : UTF-8 Plain Text
Title                                    : [М. Васильев]
Language                                 : Russian
Default                                  : No
Forced                                   : No
Menu
00:00:00.000                             : en:00:00:00.000
00:10:28.958                             : en:00:10:28.958
00:18:55.250                             : en:00:18:55.250
00:30:58.000                             : en:00:30:58.000
00:39:49.875                             : en:00:39:49.875
00:51:38.500                             : en:00:51:38.500
01:03:07.208                             : en:01:03:07.208
01:12:18.250                             : en:01:12:18.250
01:21:34.792                             : en:01:21:34.792
01:31:51.000                             : en:01:31:51.000
01:36:59.417                             : en:01:36:59.417
01:44:02.292                             : en:01:44:02.292
x264 Infox264 [info]: frame I:2001 Avg QP:14.09 size:107592
x264 [info]: frame P:34340 Avg QP:15.68 size: 47085
x264 [info]: frame B:122752 Avg QP:17.08 size: 19629
x264 [info]: consecutive B-frames: 2.3% 4.5% 6.2% 20.9% 17.0% 30.8% 9.4% 6.8% 2.0% Цитата: Аудио дорожка 1 взята с этой [url=http://***/forum/viewtopic.php?t=4815782]раздачи[/url], thx: jet1977
За русские субтитры спасибо: М_Васильев
Скачать

Скачать торрент!

Как скачивать? · Что такое торрент? · Рейтинг и ограничения

Сайт не распространяет и не хранит электронные версии произведений, а лишь предоставляет доступ к создаваемому пользователями каталогу ссылок на торрент-файлы, которые содержат только списки хеш-сумм

[Профиль] [ЛС]
Показать сообщения:    
Ответить на тему

Текущее время: Сегодня 03:09

Часовой пояс: GMT + 4



Вы не можете начинать темы
Вы не можете отвечать на сообщения
Вы не можете редактировать свои сообщения
Вы не можете удалять свои сообщения
Вы не можете голосовать в опросах
Вы не можете прикреплять файлы к сообщениям
Вы не можете скачивать файлы