Застигнутый в перекрестном огне / Под перекрестным огнем / Caught in the Crossfire (Брайан А Миллер / Brian A Miller) [2010, США, драма, криминал, детектив, HDRip] Sub rus + original eng

Ответить на тему
 
Автор Сообщение

user ®

Стаж: 7 лет 7 месяцев

Сообщений: 20008

Пост Пост: #1 от 19-Окт-2010 21:23

[Цитировать]

Застигнутый в перекрестном огне / Под перекрестным огнем / Caught in the Crossfire
Страна: США
Жанр: драма, криминал, детектив
Год выпуска: 2010
Продолжительность: 01:24:39
Перевод: Субтитры (WSmit60)
Режиссер: Брайан А Миллер / Brian A Miller
В ролях: Кертис "50 Cent" Джексон (Фифти Сент), Джейсон Амброзе, Тим Филдс, Сидни Холл, Ричард Т. Джонс, Лайл Кэйнаус, Крис Клейн, Кристин Лэйкин, Майкл Матиас, Брайан А Миллер
Описание: Детективы Шеперд и Бригс расследуют загадочное убийство своего коллеги, работавшего под прикрытием. Убийца всегда опережает полицейских на шаг. Как далеко им придется зайти, чтобы найти убийцу, а может он не так далеко, как кажется на первый взгляд...
Полицейская драма с участием мировой звезды Кертиса "50 Cent" Джексона.
Качество видео: HDRip [Caught.In.The.Crossfire.720p.BluRay.X264-BRMP]
Формат видео: AVI
Видео: XviD, 2002 Kbps, 720 х 400 pixels, 23.976 fps
Аудио: (Eng) AC3, 448 Kbps, 6 channels, Front: L C R, Side: L R, LFE, 48.0 KHz
Cубтитры: русские, английские (внешние, SRT)

Сабы

85
00:07:29,074 --> 00:07:31,867
Мы Офицеры полиции!
Бросьте пушку!
86
00:07:33,161 --> 00:07:34,703
Я не делал этого!
87
00:07:34,871 --> 00:07:36,038
Я не убивал этого полицейского!
88
00:07:36,206 --> 00:07:38,541
Брось чертову пушку, Майкл.
Ты окружен.
89
00:07:38,708 --> 00:07:41,544
Майкл, Я выхожу. Майкл!
90
00:07:41,711 --> 00:07:45,005
Майкл, эй.
Эй, Я невооружен.
91
00:07:47,425 --> 00:07:50,261
- Я просто хочу поговорить.
- Я не убивал черт, этого полицейского.
92
00:07:50,428 --> 00:07:52,304
Друг, Я не делал это.
93
00:07:52,472 --> 00:07:54,098
Мы здесь чтобы помочь тебе.
94
00:07:54,266 --> 00:07:56,433
Опусти оружие Майкл!
95
00:07:56,601 --> 00:07:59,353
Эй эй, смотри на меня Майкл.
96
00:07:59,521 --> 00:08:02,273
Смотри на меня! Окей?
97
00:08:02,440 --> 00:08:04,400
Скажи своему другу пусть опустит пушку.
98
00:08:04,568 --> 00:08:06,443
Это не должно случиться, Майкл.
99
00:08:06,611 --> 00:08:09,822
Успокойся!
Просто опусти оружие, Бригс.
100
00:08:09,990 --> 00:08:11,740
- Ни за что.
- Сделай это, мать твою!
101
00:08:11,908 --> 00:08:15,119
- Ни за что.
- Майкл, мы не убьем Вас.
102
00:08:15,287 --> 00:08:18,122
Я обещаю. Я даю Вам слово:
мы не будем стелять в Вас.
103
00:08:18,290 --> 00:08:21,000
- Просто поговорим.
- Он один из них, не правда ли?
104
00:08:21,168 --> 00:08:23,085
Просто Вы и я.
Нет.
105
00:08:23,253 --> 00:08:25,087
- Он, черт, один из них, не правда ли?
- Нет.

MediaInfo

General
Complete name : E:\torrent\Caught.In.The.Crossfire.2010.HDRip\Caught.In.The.Crossfire.2010.HDRip.avi
Format : AVI
Format/Info : Audio Video Interleave
File size : 1.45 GiB
Duration : 1h 24mn
Overall bit rate : 2 459 Kbps
Writing application : VirtualDubMod 1.5.10.2 (build 2540/release)
Writing library : VirtualDubMod build 2540/release
Video
ID : 0
Format : MPEG-4 Visual
Format profile : Advanced Simple@L5
Format settings, BVOP : Yes
Format settings, QPel : No
Format settings, GMC : No warppoints
Format settings, Matrix : Default (MPEG)
Codec ID : XVID
Codec ID/Hint : XviD
Duration : 1h 24mn
Bit rate : 2 002 Kbps
Width : 720 pixels
Height : 400 pixels
Display aspect ratio : 16:9
Frame rate : 23.976 fps
Color space : YUV
Chroma subsampling : 4:2:0
Bit depth : 8 bits
Scan type : Progressive
Bits/(Pixel*Frame) : 0.290
Stream size : 1.18 GiB (81%)
Writing library : XviD 1.2.1 (UTC 2008-12-04)
Audio
ID : 1
Format : AC-3
Format/Info : Audio Coding 3
Mode extension : CM (complete main)
Codec ID : 2000
Duration : 1h 24mn
Bit rate mode : Constant
Bit rate : 448 Kbps
Channel(s) : 6 channels
Channel positions : Front: L C R, Side: L R, LFE
Sampling rate : 48.0 KHz
Bit depth : 16 bits
Stream size : 271 MiB (18%)
Alignment : Split accross interleaves
Interleave, duration : 42 ms (1.00 video frame)
Interleave, preload duration : 500 ms

Скриншот c названием фильма

Скриншоты

Скачать

Скачать торрент!

Как скачивать? · Что такое торрент? · Рейтинг и ограничения

Сайт не распространяет и не хранит электронные версии произведений, а лишь предоставляет доступ к создаваемому пользователями каталогу ссылок на торрент-файлы, которые содержат только списки хеш-сумм

[Профиль] [ЛС]

Lanos9972

Стаж: 5 лет 10 месяцев

Сообщений: 1

Пост Пост: #2 от 14-Янв-2011 20:13 (спустя 2 месяца 25 дней)

[Цитировать]

Блин,скачал и не заметил что без перевода
[Профиль] [ЛС]
Показать сообщения:    
Ответить на тему

Текущее время: Сегодня 10:01

Часовой пояс: GMT + 4



Вы не можете начинать темы
Вы не можете отвечать на сообщения
Вы не можете редактировать свои сообщения
Вы не можете удалять свои сообщения
Вы не можете голосовать в опросах
Вы не можете прикреплять файлы к сообщениям
Вы не можете скачивать файлы