Бубновая дама / Dame de Carreau (Алексис Лекей / Alexis Lecaye) [2012, Франция, детектив, HDTV 1080i] DVO (ТПО Ред Медиа)

Ответить на тему
 
Автор Сообщение

user ®

Стаж: 8 лет

Сообщений: 20008

Пост Пост: #1 от 18-Мар-2015 18:36

[Цитировать]

Бубновая дама / Dame de Carreau
Страна: Франция
Студия: Dajma, France 2 (FR2)
Жанр: детектив
Год выпуска: 2012
Продолжительность: 01:43:12
Перевод: Профессиональный (двухголосый закадровый) ТПО Ред Медиа
Cубтитры: нет
Оригинальная аудиодорожка: нет
Режиссер: Алексис Лекей / Alexis Lecaye
В ролях: Тьерри Годар, Валери Декобер-Корецки, Жан-Туссен Бернард, Софи-Шарлотт Юссон, Энн Лорье, Чарли Фуке, Клара Понсо, Гийом Крамуасен, Лорен Морель, Эрик Теобальд
Описание:
В полицию обратилась женщина, на которую напали в собственном доме, сделали укол в шею, после которого она проснулась в своей кровати полностью раздетая…

Доп. информация: третий фильм про Детектива Марстена.
первый Червовая дама - Dame de coeur (2011)
второй Пиковая дама - Dame de Pique (2011)
Сэмпл: http://multi-up.com/1038884
Качество видео: HDTV 1080i
Формат видео: MKV
Видео: AVC, 1920x1080, (16:9), 25 fps, 6.5 Mbps
Аудио: Русский, MP2, 48 kHz, 2 ch, 192 kbps
MediaInfo
General
Unique ID : 199396042601361805928611541155099238914 (0x960247EA9FBC0F7B9B6EE74FCBD8E202)
Complete name : C:\Бубновая дама_2011_HDTV 1080i_RU_-dean10.mkv
Format : Matroska
Format version : Version 4 / Version 2
File size : 4.94 GiB
Duration : 1h 43mn
Overall bit rate : 6 858 Kbps
Encoded date : UTC 2015-03-17 16:51:06
Writing application : mkvmerge v7.7.0 ('Six Voices') 64bit built on Feb 28 2015 23:39:33
Writing library : libebml v1.3.1 + libmatroska v1.4.2
DURATION : 01:43:12.168000000
NUMBER_OF_FRAMES : 258007
NUMBER_OF_BYTES : 148612032
_STATISTICS_WRITING_APP : mkvmerge v7.7.0 ('Six Voices') 64bit built on Feb 28 2015 23:39:33
_STATISTICS_WRITING_DATE_UTC : 2015-03-17 16:51:06
_STATISTICS_TAGS : BPS DURATION NUMBER_OF_FRAMES NUMBER_OF_BYTES
Video
ID : 1
Format : AVC
Format/Info : Advanced Video Codec
Format profile : High@L4.0
Format settings, CABAC : Yes
Format settings, ReFrames : 4 frames
Codec ID : V_MPEG4/ISO/AVC
Duration : 1h 43mn
Bit rate : 6 529 Kbps
Width : 1 920 pixels
Height : 1 080 pixels
Display aspect ratio : 16:9
Frame rate mode : Constant
Frame rate : 25.000 fps
Standard : Component
Color space : YUV
Chroma subsampling : 4:2:0
Bit depth : 8 bits
Scan type : Interlaced
Scan order : Top Field First
Bits/(Pixel*Frame) : 0.126
Stream size : 4.71 GiB (95%)
Default : Yes
Forced : No
Color primaries : BT.709
Transfer characteristics : BT.709
Matrix coefficients : BT.709
Color range : Limited
Audio
ID : 2
Format : MPEG Audio
Format version : Version 1
Format profile : Layer 2
Codec ID : A_MPEG/L2
Codec ID/Hint : MP2
Duration : 1h 43mn
Bit rate mode : Constant
Bit rate : 192 Kbps
Channel(s) : 2 channels
Sampling rate : 48.0 KHz
Compression mode : Lossy
Stream size : 142 MiB (3%)
Language : Russian
Default : Yes
Forced : No
Скриншот c названием фильма Скриншоты
Скачать

Скачать торрент!

Как скачивать? · Что такое торрент? · Рейтинг и ограничения

Сайт не распространяет и не хранит электронные версии произведений, а лишь предоставляет доступ к создаваемому пользователями каталогу ссылок на торрент-файлы, которые содержат только списки хеш-сумм

[Профиль] [ЛС]
Показать сообщения:    
Ответить на тему

Текущее время: Сегодня 15:16

Часовой пояс: GMT + 4



Вы не можете начинать темы
Вы не можете отвечать на сообщения
Вы не можете редактировать свои сообщения
Вы не можете удалять свои сообщения
Вы не можете голосовать в опросах
Вы не можете прикреплять файлы к сообщениям
Вы не можете скачивать файлы