Тарас Бульба (Владимир Бортко) [2009, боевик, драма, военный, история, BDRip]

Ответить на тему
 
Автор Сообщение

user ®

Стаж: 7 лет 7 месяцев

Сообщений: 20008

Пост Пост: #1 от 17-Мар-2015 18:45

[Цитировать]

Тарас Бульба-«От любви до ненависти»
-Страна: Россия, Украина, Польша
Жанр: Боевик, драма, военный, история
Год выпуска: 2009
Продолжительность: 02:11:16-Режиссер: Владимир Бортко-В ролях: Богдан Ступка, Владимир Вдовиченков, Игорь Петренко, Магдалена Мельцаж, Михаил Боярский, Сергей Дрейден, Владимир Ильин, Юрий Беляев, Ада Роговцева, Борис Хмельницкий-Описание: По мотивам одной из самых известных повестей Николая Гоголя «Тарас Бульба». События «Запорожской сечи» отсылают к тяжелому периоду в истории казачества, когда запорожцы поднялись на борьбу с Речью Посполитой.
В самом центре политических интриг оказалась семья уважаемого казака Тараса Бульбы, переживающего глубокую личную драму. Его сын Андрий полюбил польскую аристократку и хочет бежать из Сечи. Раздираемый чувством и долгом Тарас объявляет сыну последнюю родительскую волю…-Доп. информация:

Релиз: Автор рипа: Shevon-Качество видео: BDRip (BLU-RAY Disk)
Формат видео: AVI
Видео: 720 x 304; 23.976 fps; 1928 kbps; 0.37 bit/pixel
Аудио: 48 kHz; 6 ch; 448.00 kbps; AC3 Dolby Digital
Размер файла: 2238.31 Mb (1/2 DVD5)
MediaInfo
Format                           : AVI
Format/Info                      : Audio Video Interleave
Format profile                   : OpenDML
File size                        : 2.19 GiB
Duration                         : 2h 11mn
Overall bit rate                 : 2 384 Kbps
Movie name                       : Тарас Бульба (2009)
Director                         : Shevon (BDRemux)
Writing application              : VirtualDubMod 1.5.10.2 (build 2542/release)
Copyright                        : HQ-ViDEO
Comment                          : 21.11.2009
Video
ID                               : 0
Format                           : MPEG-4 Visual
Format profile                   : Advanced Simple@L5
Format settings, BVOP            : Yes
Format settings, QPel            : No
Format settings, GMC             : No warppoints
Format settings, Matrix          : Custom
Codec ID                         : XVID
Codec ID/Hint                    : XviD
Duration                         : 2h 11mn
Bit rate                         : 1 924 Kbps
Width                            : 720 pixels
Height                           : 304 pixels
Display aspect ratio             : 2.35:1
Frame rate                       : 23.976 fps
Color space                      : YUV
Chroma subsampling               : 4:2:0
Bit depth                        : 8 bits
Scan type                        : Progressive
Bits/(Pixel*Frame)               : 0.367
Stream size                      : 1.76 GiB (81%)
Writing library                  : XviD 1.2.1 (UTC 2008-12-04)
Audio
ID                               : 1
Format                           : AC-3
Format/Info                      : Audio Coding 3
Mode extension                   : CM (complete main)
Codec ID                         : 2000
Duration                         : 2h 11mn
Bit rate mode                    : Constant
Bit rate                         : 448 Kbps
Channel(s)                       : 6 channels
Channel positions                : Front: L C R, Side: L R, LFE
Sampling rate                    : 48.0 KHz
Bit depth                        : 16 bits
Stream size                      : 421 MiB (19%)
Alignment                        : Split accross interleaves
Interleave, duration             : 42 ms (1.00 video frame)
Interleave, preload duration     : 500 ms
Скриншоты для оценки качества (превью - увеличение по клику): ПРИЯТНОГО ПРОСМОТРА!
Скачать

Скачать торрент!

Как скачивать? · Что такое торрент? · Рейтинг и ограничения

Сайт не распространяет и не хранит электронные версии произведений, а лишь предоставляет доступ к создаваемому пользователями каталогу ссылок на торрент-файлы, которые содержат только списки хеш-сумм

[Профиль] [ЛС]
Показать сообщения:    
Ответить на тему

Текущее время: Сегодня 23:50

Часовой пояс: GMT + 4



Вы не можете начинать темы
Вы не можете отвечать на сообщения
Вы не можете редактировать свои сообщения
Вы не можете удалять свои сообщения
Вы не можете голосовать в опросах
Вы не можете прикреплять файлы к сообщениям
Вы не можете скачивать файлы