Робин Гуд: Принц Воров / Robin Hood: Prince of Thieves (Кевин Рейнольдс / Kevin Reynolds) [1991, США, боевик, драма, мелодрама, BDRip 1080p] [Extended Version] 2xDub + 2xMVO + 5xAVO + 2xVO + Original Eng + subs (Rus, Eng, Ukr Forced)

Ответить на тему
 
Автор Сообщение

user ®

Стаж: 7 лет 7 месяцев

Сообщений: 20008

Пост Пост: #1 от 16-Мар-2015 16:51

[Цитировать]

Робин Гуд: Принц Воров / Robin Hood: Prince of Thieves [Extended Version]- Год выпуска: 1991
Выпущено: США
Жанр: боевик, драма, мелодрама
Продолжительность: 02:35:03
Перевод: Профессиональный (полное дублирование)
+ Профессиональный (полное дублирование) Варус-Видео
+ Профессиональный (многоголосый, закадровый) Екатеринбург АРТ
+ Профессиональный (многоголосый, закадровый) Киномания
+ Авторский одноголосый М.Латышев
+ Авторский одноголосый А.Михалев
+ Авторский одноголосый А.Гаврилов
+ Авторский одноголосый Ю.Живов (новый)
+ Авторский одноголосый Ю.Живов (старый)
+ Авторский одноголосый А.Дольский
+ Одноголосый закадровый
Оригинальная звуковая дорожка: English
Субтитры: Russian, Ukrainian, English-Режиссер: Кевин Рейнольдс / Kevin Reynolds
В ролях: Кевин Костнер, Морган Фриман, Мэри Элизабет Мастрантонио, Кристиан Слэйтер, Алан Рикман, Джеральдин МакЮэн, Майкл МакШейн, Брайан Блессид, Майкл Уинкотт, Ник Бримбл
О фильме: Немногие вернулись из Крестового похода. Робину из Локсли, чтобы избежать гибели в заточении у неверных, пришлось воспользоваться помощью одного из узников-мусульман: религиозных врагов сплотило общее несчастье. Но самые большие угрозы ожидают героя со стороны единоверцев: английский трон захвачен самозванцем!
Только зеленый лес, только потерявшие все, и готовые на все друзья, только вера в свою правоту помогут Робину выстоять в неравной борьбе. А его врагов заставят содрогаться от зловещего свиста летящих ниоткуда метких стрел.-CRiSC!
Релиз:
Формат: MKV
Видео: 1920x1080 at 23.976 fps, x264, ~14900 kbps avg
Аудио #01: Russian: 48 kHz, AC3, 3/2 (L,C,R,l,r) + LFE ch, ~384.00 kbps avg |Дубляж|
Аудио #02: Russian: 48 kHz, AC3, 2/0 (L,R) ch, ~192.00 kbps avg |Дубляж, Варус-Видео|
Аудио #03: Russian: 48 kHz, AC3, 2/0 (L,R) ch, ~192.00 kbps avg |Многоголосый закадровый, "Екатеринбург АРТ"|
Аудио #04: Russian: 48 kHz, AC3, 2/0 (L,R) ch, ~192.00 kbps avg |Одноголосый закадровый|
Аудио #05: Russian: 48 kHz, AC3, 2/0 (L,R) ch, ~192.00 kbps avg |Одноголосый закадровый, А.Дольский|
Аудио #06: Russian: 48 kHz, AC3, 2/0 (L,R) ch, ~192.00 kbps avg |Одноголосый закадровый, М.Латышев|
Аудио #07: Russian: 48 kHz/16-bit, DTS, 3/2 (L,C,R,l,r) + LFE ch, ~1509.00 kbps avg |Многоголосый закадровый, Киномания|
Аудио #08: Russian: 48 kHz/16-bit, DTS, 3/2 (L,C,R,l,r) + LFE ch, ~1509.00 kbps avg |Одноголосый закадровый, А.Михалев|
Аудио #09: Russian: 48 kHz/16-bit, DTS, 3/2 (L,C,R,l,r) + LFE ch, ~1509.00 kbps avg |Одноголосый закадровый, А.Гаврилов|
Аудио #10: Russian: 48 kHz/16-bit, DTS, 3/2 (L,C,R,l,r) + LFE ch, ~1509.00 kbps avg |Одноголосый закадровый, Ю.Живов (новый)|
Аудио #11: Russian: 48 kHz/16-bit, DTS, 3/2 (L,C,R,l,r) + LFE ch, ~1509.00 kbps avg |Одноголосый закадровый, Ю.Живов (старый)|
Аудио #12: Ukrainian: 48 kHz, AC3, 2/0 (L,R) ch, ~384.00 kbps avg |Многоголосый закадровый, ICTV|
Аудио #13: English: 48 kHz/16-bit, DTS, 3/2 (L,C,R,l,r) + LFE ch, ~1509.00 kbps avg
Аудио #14: English: 48 kHz, AC3, 2/0 (L,R) ch, ~192.00 kbps avg |Commentary#1|
Аудио #15: English: 48 kHz, AC3, 2/0 (L,R) ch, ~192.00 kbps avg |Commentary#2|
Семпл-Source-->Encode
-
mInfo
Формат : Matroska
Версия формата : Version 4 / Version 2
Размер файла : 28,6 Гбайт
Продолжительность : 2 ч. 35 м.
Общий поток : 26,4 Мбит/сек
Дата кодирования : UTC 2015-03-15 06:07:02
Программа кодирования : mkvmerge v7.0.0 ('Where We Going') 32bit built on Jun 9 2014 15:08:34
Библиотека кодирования : libebml v1.3.0 + libmatroska v1.4.1
DURATION : 02:32:17.253000000
NUMBER_OF_FRAMES : 1539
NUMBER_OF_BYTES : 50031
_STATISTICS_WRITING_APP : mkvmerge v7.0.0 ('Where We Going') 32bit built on Jun 9 2014 15:08:34
_STATISTICS_WRITING_DATE_UTC : 2015-03-15 06:07:02
_STATISTICS_TAGS : BPS DURATION NUMBER_OF_FRAMES NUMBER_OF_BYTES
Видео
Идентификатор : 1
Формат : AVC
Формат/Информация : Advanced Video Codec
Профиль формата : High@L4.1
Параметр CABAC формата : Да
Параметр ReFrames формата : 4 кадра
Идентификатор кодека : V_MPEG4/ISO/AVC
Продолжительность : 2 ч. 35 м.
Битрейт : 14,7 Мбит/сек
Ширина : 1920 пикселей
Высота : 1080 пикселей
Соотношение сторон : 16:9
Режим частоты кадров : Постоянный
Частота кадров : 23,976 кадра/сек
Цветовое пространство : YUV
Субдискретизация насыщенности : 4:2:0
Битовая глубина : 8 бит
Тип развёртки : Прогрессивная
Бит/(Пиксели*Кадры) : 0.296
Размер потока : 15,9 Гбайт (56%)
Библиотека кодирования : x264 core 142 r2431+42 c69a006 tMod [8-bit@4:2:0 X86_64]
Настройки программы : cabac=1 / ref=4 / deblock=1:-3:-3 / analyse=0x3:0x133 / me=umh / subme=10 / psy=1 / fade_compensate=0.00 / psy_rd=1.00:0.00 / mixed_ref=1 / me_range=24 / chroma_me=1 / trellis=2 / 8x8dct=1 / cqm=0 / deadzone=21,11 / fast_pskip=1 / chroma_qp_offset=-2 / threads=12 / lookahead_threads=2 / sliced_threads=0 / nr=0 / decimate=1 / interlaced=0 / bluray_compat=0 / constrained_intra=0 / fgo=0 / bframes=8 / b_pyramid=2 / b_adapt=2 / b_bias=0 / direct=3 / weightb=1 / open_gop=0 / weightp=2 / keyint=250 / keyint_min=23 / scenecut=40 / intra_refresh=0 / rc_lookahead=60 / rc=crf / mbtree=0 / crf=19.8500 / qcomp=0.65 / qpmin=0:0:0 / qpmax=69:69:69 / qpstep=4 / vbv_maxrate=62500 / vbv_bufsize=78125 / crf_max=0.0 / nal_hrd=none / filler=0 / ip_ratio=1.30 / pb_ratio=1.20 / aq=4:0.85 / aq-sensitivity=10.00 / aq-factor=1.00:1.00:1.00 / aq2=0 / aq3=0
Язык : English
Default : Да
Forced : Нет
Коэффициенты матрицы : BT.709
colour_range : Limited
DURATION : 02:35:03.878000000
NUMBER_OF_FRAMES : 223070
NUMBER_OF_BYTES : 17702471394
_STATISTICS_WRITING_APP : mkvmerge v7.0.0 ('Where We Going') 32bit built on Jun 9 2014 15:08:34
_STATISTICS_WRITING_DATE_UTC : 2015-03-15 06:07:02
_STATISTICS_TAGS : BPS DURATION NUMBER_OF_FRAMES NUMBER_OF_BYTES
Аудио #1
Идентификатор : 2
Формат : AC-3
Формат/Информация : Audio Coding 3
Расширение режима : CM (complete main)
Параметр Endianness формата : Big
Идентификатор кодека : A_AC3
Продолжительность : 2 ч. 35 м.
Вид битрейта : Постоянный
Битрейт : 384 Кбит/сек
Каналы : 6 каналов
Расположение каналов : Front: L C R, Side: L R, LFE
Частота : 48,0 КГц
Битовая глубина : 16 бит
Метод сжатия : С потерями
Размер потока : 426 Мбайт (1%)
Заголовок : |Дубляж|
Язык : Russian
Default : Да
Forced : Нет
Аудио #2
Идентификатор : 3
Формат : AC-3
Формат/Информация : Audio Coding 3
Расширение режима : CM (complete main)
Параметр Endianness формата : Big
Идентификатор кодека : A_AC3
Продолжительность : 2 ч. 35 м.
Вид битрейта : Постоянный
Битрейт : 192 Кбит/сек
Каналы : 2 канала
Расположение каналов : Front: L R
Частота : 48,0 КГц
Битовая глубина : 16 бит
Метод сжатия : С потерями
Размер потока : 213 Мбайт (1%)
Заголовок : |Дубляж, Варус-Видео|
Язык : Russian
Default : Нет
Forced : Нет
Аудио #3
Идентификатор : 4
Формат : AC-3
Формат/Информация : Audio Coding 3
Профиль формата : Dolby Digital
Расширение режима : CM (complete main)
Параметр Endianness формата : Big
Идентификатор кодека : A_AC3
Продолжительность : 2 ч. 35 м.
Вид битрейта : Постоянный
Битрейт : 192 Кбит/сек
Каналы : 2 канала
Расположение каналов : Front: L R
Частота : 48,0 КГц
Битовая глубина : 16 бит
Метод сжатия : С потерями
Размер потока : 213 Мбайт (1%)
Заголовок : |Многоголосый закадровый, "Екатеринбург АРТ"|
Язык : Russian
Default : Нет
Forced : Нет
Аудио #4
Идентификатор : 5
Формат : AC-3
Формат/Информация : Audio Coding 3
Профиль формата : Dolby Digital
Расширение режима : CM (complete main)
Параметр Endianness формата : Big
Идентификатор кодека : A_AC3
Продолжительность : 2 ч. 35 м.
Вид битрейта : Постоянный
Битрейт : 192 Кбит/сек
Каналы : 2 канала
Расположение каналов : Front: L R
Частота : 48,0 КГц
Битовая глубина : 16 бит
Метод сжатия : С потерями
Размер потока : 213 Мбайт (1%)
Заголовок : |Одноголосый закадровый|
Язык : Russian
Default : Нет
Forced : Нет
Аудио #5
Идентификатор : 6
Формат : AC-3
Формат/Информация : Audio Coding 3
Профиль формата : Dolby Digital
Расширение режима : CM (complete main)
Параметр Endianness формата : Big
Идентификатор кодека : A_AC3
Продолжительность : 2 ч. 35 м.
Вид битрейта : Постоянный
Битрейт : 192 Кбит/сек
Каналы : 2 канала
Расположение каналов : Front: L R
Частота : 48,0 КГц
Битовая глубина : 16 бит
Метод сжатия : С потерями
Размер потока : 213 Мбайт (1%)
Заголовок : |Одноголосый закадровый, А.Дольский|
Язык : Russian
Default : Нет
Forced : Нет
Аудио #6
Идентификатор : 7
Формат : AC-3
Формат/Информация : Audio Coding 3
Профиль формата : Dolby Digital
Расширение режима : CM (complete main)
Параметр Endianness формата : Big
Идентификатор кодека : A_AC3
Продолжительность : 2 ч. 35 м.
Вид битрейта : Постоянный
Битрейт : 192 Кбит/сек
Каналы : 2 канала
Расположение каналов : Front: L R
Частота : 48,0 КГц
Битовая глубина : 16 бит
Метод сжатия : С потерями
Размер потока : 213 Мбайт (1%)
Заголовок : |Одноголосый закадровый, М.Латышев|
Язык : Russian
Default : Нет
Forced : Нет
Аудио #7
Идентификатор : 8
Формат : DTS
Формат/Информация : Digital Theater Systems
Режим : 16
Параметр Endianness формата : Big
Идентификатор кодека : A_DTS
Продолжительность : 2 ч. 35 м.
Вид битрейта : Постоянный
Битрейт : 1509 Кбит/сек
Каналы : 6 каналов
Расположение каналов : Front: L C R, Side: L R, LFE
Частота : 48,0 КГц
Битовая глубина : 16 бит
Метод сжатия : С потерями
Размер потока : 1,63 Гбайт (6%)
Заголовок : |Многоголосый закадровый, Киномания|
Язык : Russian
Default : Нет
Forced : Нет
Аудио #8
Идентификатор : 9
Формат : DTS
Формат/Информация : Digital Theater Systems
Режим : 16
Параметр Endianness формата : Big
Идентификатор кодека : A_DTS
Продолжительность : 2 ч. 35 м.
Вид битрейта : Постоянный
Битрейт : 1509 Кбит/сек
Каналы : 6 каналов
Расположение каналов : Front: L C R, Side: L R, LFE
Частота : 48,0 КГц
Битовая глубина : 16 бит
Метод сжатия : С потерями
Размер потока : 1,63 Гбайт (6%)
Заголовок : |Одноголосый закадровый, А.Михалев|
Язык : Russian
Default : Нет
Forced : Нет
Аудио #9
Идентификатор : 10
Формат : DTS
Формат/Информация : Digital Theater Systems
Режим : 16
Параметр Endianness формата : Big
Идентификатор кодека : A_DTS
Продолжительность : 2 ч. 35 м.
Вид битрейта : Постоянный
Битрейт : 1509 Кбит/сек
Каналы : 6 каналов
Расположение каналов : Front: L C R, Side: L R, LFE
Частота : 48,0 КГц
Битовая глубина : 16 бит
Метод сжатия : С потерями
Размер потока : 1,63 Гбайт (6%)
Заголовок : |Одноголосый закадровый, А.Гаврилов|
Язык : Russian
Default : Нет
Forced : Нет
Аудио #10
Идентификатор : 11
Формат : DTS
Формат/Информация : Digital Theater Systems
Режим : 16
Параметр Endianness формата : Big
Идентификатор кодека : A_DTS
Продолжительность : 2 ч. 35 м.
Вид битрейта : Постоянный
Битрейт : 1509 Кбит/сек
Каналы : 6 каналов
Расположение каналов : Front: L C R, Side: L R, LFE
Частота : 48,0 КГц
Битовая глубина : 16 бит
Метод сжатия : С потерями
Размер потока : 1,63 Гбайт (6%)
Заголовок : |Одноголосый закадровый, Ю.Живов (новый)|
Язык : Russian
Default : Нет
Forced : Нет
Аудио #11
Идентификатор : 12
Формат : DTS
Формат/Информация : Digital Theater Systems
Режим : 16
Параметр Endianness формата : Big
Идентификатор кодека : A_DTS
Продолжительность : 2 ч. 35 м.
Вид битрейта : Постоянный
Битрейт : 1509 Кбит/сек
Каналы : 6 каналов
Расположение каналов : Front: L C R, Side: L R, LFE
Частота : 48,0 КГц
Битовая глубина : 16 бит
Метод сжатия : С потерями
Размер потока : 1,63 Гбайт (6%)
Заголовок : |Одноголосый закадровый, Ю.Живов (старый)|
Язык : Russian
Default : Нет
Forced : Нет
Аудио #12
Идентификатор : 13
Формат : AC-3
Формат/Информация : Audio Coding 3
Расширение режима : CM (complete main)
Параметр Endianness формата : Big
Идентификатор кодека : A_AC3
Продолжительность : 2 ч. 35 м.
Вид битрейта : Постоянный
Битрейт : 384 Кбит/сек
Каналы : 6 каналов
Расположение каналов : Front: L C R, Side: L R, LFE
Частота : 48,0 КГц
Битовая глубина : 16 бит
Метод сжатия : С потерями
Размер потока : 426 Мбайт (1%)
Заголовок : |Многоголосый закадровый, ICTV|
Язык : Ukrainian
Default : Нет
Forced : Нет
Аудио #13
Идентификатор : 14
Формат : DTS
Формат/Информация : Digital Theater Systems
Режим : 16
Параметр Endianness формата : Big
Идентификатор кодека : A_DTS
Продолжительность : 2 ч. 35 м.
Вид битрейта : Постоянный
Битрейт : 1509 Кбит/сек
Каналы : 6 каналов
Расположение каналов : Front: L C R, Side: L R, LFE
Частота : 48,0 КГц
Битовая глубина : 16 бит
Метод сжатия : С потерями
Размер потока : 1,63 Гбайт (6%)
Язык : English
Default : Нет
Forced : Нет
Аудио #14
Идентификатор : 15
Формат : AC-3
Формат/Информация : Audio Coding 3
Профиль формата : Dolby Digital
Расширение режима : CM (complete main)
Параметр Endianness формата : Big
Идентификатор кодека : A_AC3
Продолжительность : 2 ч. 35 м.
Вид битрейта : Постоянный
Битрейт : 192 Кбит/сек
Каналы : 2 канала
Расположение каналов : Front: L R
Частота : 48,0 КГц
Битовая глубина : 16 бит
Метод сжатия : С потерями
Размер потока : 213 Мбайт (1%)
Заголовок : |Commentary#1|
Язык : English
Default : Нет
Forced : Нет
Аудио #15
Идентификатор : 16
Формат : AC-3
Формат/Информация : Audio Coding 3
Профиль формата : Dolby Digital
Расширение режима : CM (complete main)
Параметр Endianness формата : Big
Идентификатор кодека : A_AC3
Продолжительность : 2 ч. 35 м.
Вид битрейта : Постоянный
Битрейт : 192 Кбит/сек
Каналы : 2 канала
Расположение каналов : Front: L R
Частота : 48,0 КГц
Битовая глубина : 16 бит
Метод сжатия : С потерями
Размер потока : 213 Мбайт (1%)
Заголовок : |Commentary#2|
Язык : English
Default : Нет
Forced : Нет
Текст #1
Идентификатор : 17
Формат : UTF-8
Идентификатор кодека : S_TEXT/UTF8
Идентификатор кодека/Информация : UTF-8 Plain Text
Заголовок : Forced
Язык : Ukrainian
Default : Нет
Forced : Нет
Текст #2
Идентификатор : 18
Формат : UTF-8
Идентификатор кодека : S_TEXT/UTF8
Идентификатор кодека/Информация : UTF-8 Plain Text
Язык : Russian
Default : Нет
Forced : Нет
Текст #3
Идентификатор : 19
Формат : UTF-8
Идентификатор кодека : S_TEXT/UTF8
Идентификатор кодека/Информация : UTF-8 Plain Text
Язык : English
Default : Нет
Forced : Нет
Меню
00:00:00.000 : :00:00:00.000
00:02:19.681 : :00:02:19.681
00:05:57.774 : :00:05:57.774
00:08:16.954 : :00:08:16.954
00:10:59.658 : :00:10:59.658
00:15:35.558 : :00:15:35.558
00:20:08.289 : :00:20:08.289
00:23:47.134 : :00:23:47.134
00:27:07.416 : :00:27:07.416
00:31:15.748 : :00:31:15.748
00:34:46.083 : :00:34:46.083
00:37:32.041 : :00:37:32.041
00:41:24.731 : :00:41:24.731
00:44:35.505 : :00:44:35.505
00:47:40.565 : :00:47:40.565
00:50:58.764 : :00:50:58.764
00:56:04.860 : :00:56:04.860
00:58:17.034 : :00:58:17.034
01:02:18.735 : :01:02:18.735
01:07:56.697 : :01:07:56.697
01:14:22.332 : :01:14:22.332
01:16:17.197 : :01:16:17.197
01:18:49.306 : :01:18:49.306
01:22:39.621 : :01:22:39.621
01:25:47.432 : :01:25:47.432
01:29:40.957 : :01:29:40.957
01:32:10.524 : :01:32:10.524
01:34:41.676 : :01:34:41.676
01:37:30.511 : :01:37:30.511
01:40:27.061 : :01:40:27.061
01:43:45.385 : :01:43:45.385
01:47:24.645 : :01:47:24.645
01:52:12.182 : :01:52:12.182
01:54:24.356 : :01:54:24.356
01:59:35.835 : :01:59:35.835
02:01:52.345 : :02:01:52.345
02:04:26.417 : :02:04:26.417
02:08:23.654 : :02:08:23.654
02:12:02.122 : :02:12:02.122
02:16:21.213 : :02:16:21.213
02:18:29.384 : :02:18:29.384
02:21:34.652 : :02:21:34.652
02:23:26.722 : :02:23:26.722
02:27:00.520 : :02:27:00.520
02:28:11.173 : :02:28:11.173
02:30:23.180 : :02:30:23.180

-
Цитата:
* Сохранены оригинальные главы как на Blu-ray.
* За ремукс спасибо Прагматик.

-
Партизан писал(а):
* Чистый голос А.Михалёва предоставил Nadoelo (е180), за что ему большое спасибо. Чистые голоса А.Гаврилова и Ю.Живова (оба перевода) предоставил Sergey_N, за что ему также большое спасибо. Дорожку с переводом А.Дольского предоставил pupsik197 (е180), дорожку с переводом Неизвестного предоставил JOHNNY (е180), большое спасибо им обоим. Дорожка с переводом М.Латышева ("Техновидео") с моей кассеты. Дорожку с переводом "Екатеринбург АРТ" взял на рутрекере, спасибо релизеру DjVu-Master. Дубляж и многоголосый перевод были на диске. Исходный диск предоставил oleg-k (е180), за что ему также большое спасибо..
Переводы А.Михалёва, Ю.Живова (ранний), А.Дольского, М.Латышева, Неизвестного имеют вставки из позднего перевода Ю.Живова. Перевод "Екатеринбург АРТ" и дубляж имеют вставки из перевода "Киномании".

-
Прагматик писал(а):
* Дорога Киномании с выделенных голосов.
* В укр. дороге имеются не переведенные эпизоды: на них форсированные субтитры.
* За Варусовский дубляж спасибо Fredd Kruger, за украинскую дорогу - трекеру Гуртом.
Скачать

Скачать торрент!

Как скачивать? · Что такое торрент? · Рейтинг и ограничения

Сайт не распространяет и не хранит электронные версии произведений, а лишь предоставляет доступ к создаваемому пользователями каталогу ссылок на торрент-файлы, которые содержат только списки хеш-сумм

[Профиль] [ЛС]
Показать сообщения:    
Ответить на тему

Текущее время: Сегодня 02:03

Часовой пояс: GMT + 4



Вы не можете начинать темы
Вы не можете отвечать на сообщения
Вы не можете редактировать свои сообщения
Вы не можете удалять свои сообщения
Вы не можете голосовать в опросах
Вы не можете прикреплять файлы к сообщениям
Вы не можете скачивать файлы