Подарок Мэгги / Gift of the Magi (Лиза Мулкахи / Lisa Mulcahy) [2010, США, драма, HDTV 1080i] MVO

Ответить на тему
 
Автор Сообщение

user ®

Стаж: 7 лет 7 месяцев

Сообщений: 20008

Пост Пост: #1 от 16-Мар-2015 16:51

[Цитировать]

Подарок Мэгги/ Gift of the Magi
Страна: США
Жанр: драма
Год выпуска: 2010
Продолжительность: 01:21:59
Перевод: Профессиональный (многоголосый закадровый)
Cубтитры: нет
Режиссер: Лиза Мулкахи / Lisa Mulcahy
В ролях: Марла Соколофф, Марк Веббер, Мишель Бимиш, Глайннис Кассон, Томас Грубе, Гари Хецлер, Имонн Хант, Roisin Kiely, Джерри МакКанн, Бэрри МакГоверн
Описание: Молодожены Джим и Мэгги живут в тесной квартирке и едва сводят концы с концами. Окончательно их добивает поломка автомобиля. Пара соглашается отказаться от подарков на Рождество в этом году, но в тайне друг для друга они готовят что-то грандиозное.
Сэмпл: http://rusfolder.com/43213008
Кинопоиск: http://www.kinopoisk.ru/film/575183/

Тип релиза: HDTV 1080i
Контейнер: TS
Видео: AVC/H.264, 1920x1080 (16:9), 5371 Кбит/сек, 25.000 fps
Аудио: русский, MP2, 2ch, 48,0 КГц, 192 Кбит/сек
MediaInfo
General
ID : 1 (0x1)
Complete name : D:\Gift of the Magi.ts
Format : MPEG-TS
File size : 3.35 GiB
Duration : 1h 21mn
Overall bit rate mode : Variable
Overall bit rate : 5 855 Kbps
Maximum Overall bit rate : 35.5 Mbps
Video
ID : 4113 (0x1011)
Menu ID : 1 (0x1)
Format : AVC
Format/Info : Advanced Video Codec
Format profile : Main@L4.0
Format settings, CABAC : Yes
Format settings, ReFrames : 3 frames
Codec ID : 27
Duration : 1h 21mn
Bit rate mode : Variable
Bit rate : 5 371 Kbps
Maximum bit rate : 40.0 Mbps
Width : 1 920 pixels
Height : 1 080 pixels
Display aspect ratio : 16:9
Frame rate : 25.000 fps
Standard : Component
Color space : YUV
Chroma subsampling : 4:2:0
Bit depth : 8 bits
Scan type : Interlaced
Scan order : Top Field First
Bits/(Pixel*Frame) : 0.104
Stream size : 3.08 GiB (92%)
Audio
ID : 4352 (0x1100)
Menu ID : 1 (0x1)
Format : MPEG Audio
Format version : Version 1
Format profile : Layer 2
Codec ID : 4
Duration : 1h 21mn
Bit rate mode : Constant
Bit rate : 192 Kbps
Channel(s) : 2 channels
Sampling rate : 48.0 KHz
Compression mode : Lossy
Stream size : 113 MiB (3%)
Language : Russian
Скриншот с названием фильма Скриншоты
Скачать

Скачать торрент!

Как скачивать? · Что такое торрент? · Рейтинг и ограничения

Сайт не распространяет и не хранит электронные версии произведений, а лишь предоставляет доступ к создаваемому пользователями каталогу ссылок на торрент-файлы, которые содержат только списки хеш-сумм

[Профиль] [ЛС]
Показать сообщения:    
Ответить на тему

Текущее время: Сегодня 14:30

Часовой пояс: GMT + 4



Вы не можете начинать темы
Вы не можете отвечать на сообщения
Вы не можете редактировать свои сообщения
Вы не можете удалять свои сообщения
Вы не можете голосовать в опросах
Вы не можете прикреплять файлы к сообщениям
Вы не можете скачивать файлы