Поездка на возу 2 / Hayride 2 (Террон Р. Парсонс / Terron R. Parsons) [2015, США, ужасы, триллер, WEB-DLRip] DVO (DeadSno & den904) + Original Eng

Ответить на тему
 
Автор Сообщение

user ®

Стаж: 7 лет 7 месяцев

Сообщений: 20008

Пост Пост: #1 от 16-Мар-2015 10:39

[Цитировать]

Поездка на возу 2 / Hayride 2
Страна: США
Жанр: ужасы, триллер
Год выпуска: 2015
Продолжительность: 01:32:17
Перевод: Любительский (двухголосый закадровый) DeadSno & den904
Cубтитры: нет
Оригинальная аудиодорожка: английский
Режиссер: Террон Р. Парсонс / Terron R. Parsons
В ролях: Джереми Сэнд, Джереми Айви, Корландос Скотт, Ричард Тайсон, Джон ДеЛонг, Рэйчел Варела, Дэвид ’Шарк’ Фралик, Адам Кардон, Дефесио Стоглин
Описание: Конец одного пути только знаменует собой начало другого, когда детектив Лумис возвращается, чтобы раскрыть правду легенды Питчфорка.
Доп. информация: Фильм содержит нецензурную лексику!
Сэмпл: http://multi-up.com/1038006
Качество видео: WEB-DLRip
Формат видео: AVI
Видео: 720x400 (1.80:1), 23.976 fps, XviD build 73 ~1855 kbps avg, 0.269 bit/pixel
Аудио: 48 kHz, AC3 Dolby Digital, 2/0 (L,R) ch, ~192.00 kbps, русский
Аудио 2: 48 kHz, AC3 Dolby Digital, 2/0 (L,R) ch, ~192.00 kbps, английский
MediaInfo
General
Complete name : C:\Users\Wladimir\Videos\Поездка на возу 2\Поездка на возу 2.avi
Format : AVI
Format/Info : Audio Video Interleave
File size : 1.45 GiB
Duration : 1h 32mn
Overall bit rate : 2 253 Kbps
Writing application : VirtualDubMod 1.5.10.3 | www.virtualdub-fr.org || (build 2550/release)
Writing library : VirtualDubMod build 2550/release
Video
ID : 0
Format : MPEG-4 Visual
Format profile : Advanced Simple@L5
Format settings, BVOP : 1
Format settings, QPel : No
Format settings, GMC : No warppoints
Format settings, Matrix : Custom
Codec ID : XVID
Codec ID/Hint : XviD
Duration : 1h 32mn
Bit rate : 1 855 Kbps
Width : 720 pixels
Height : 400 pixels
Display aspect ratio : 16:9
Frame rate : 23.976 fps
Color space : YUV
Chroma subsampling : 4:2:0
Bit depth : 8 bits
Scan type : Progressive
Compression mode : Lossy
Bits/(Pixel*Frame) : 0.269
Stream size : 1.20 GiB (82%)
Writing library : XviD 73
Audio #1
ID : 1
Format : AC-3
Format/Info : Audio Coding 3
Mode extension : CM (complete main)
Format settings, Endianness : Big
Codec ID : 2000
Duration : 1h 32mn
Bit rate mode : Constant
Bit rate : 192 Kbps
Channel(s) : 2 channels
Channel positions : Front: L R
Sampling rate : 48.0 KHz
Bit depth : 16 bits
Compression mode : Lossy
Stream size : 127 MiB (9%)
Alignment : Split accross interleaves
Interleave, duration : 42 ms (1.00 video frame)
Interleave, preload duration : 500 ms
Audio #2
ID : 2
Format : AC-3
Format/Info : Audio Coding 3
Mode extension : CM (complete main)
Format settings, Endianness : Big
Codec ID : 2000
Duration : 1h 32mn
Bit rate mode : Constant
Bit rate : 192 Kbps
Channel(s) : 2 channels
Channel positions : Front: L R
Sampling rate : 48.0 KHz
Bit depth : 16 bits
Compression mode : Lossy
Stream size : 127 MiB (9%)
Alignment : Split accross interleaves
Interleave, duration : 42 ms (1.00 video frame)
Interleave, preload duration : 500 ms
Скриншоты
Скачать

Скачать торрент!

Как скачивать? · Что такое торрент? · Рейтинг и ограничения

Сайт не распространяет и не хранит электронные версии произведений, а лишь предоставляет доступ к создаваемому пользователями каталогу ссылок на торрент-файлы, которые содержат только списки хеш-сумм

[Профиль] [ЛС]
Показать сообщения:    
Ответить на тему

Текущее время: Сегодня 04:48

Часовой пояс: GMT + 4



Вы не можете начинать темы
Вы не можете отвечать на сообщения
Вы не можете редактировать свои сообщения
Вы не можете удалять свои сообщения
Вы не можете голосовать в опросах
Вы не можете прикреплять файлы к сообщениям
Вы не можете скачивать файлы