Осквернённый / Desecrated (Роб Гарсиа / Rob Garcia) [2015, США, триллер, WEB-DLRip] DVO (den904 & DeadSno)

Ответить на тему
 
Автор Сообщение

user ®

Стаж: 7 лет 7 месяцев

Сообщений: 20008

Пост Пост: #1 от 15-Мар-2015 19:42

[Цитировать]

Осквернённый / Desecrated
Страна: USA / США
Жанр: триллер
Год выпуска: 2015
Продолжительность: 01:22:18
Перевод : Любительский (двухголосый закадровый) den904 & DeadSno
Cубтитры: нет
Режиссер: Роб Гарсиа / Rob GarciaВ ролях:
Хэйли Дафф / Haylie Duff - Allie McClean
Уилмер Калдерон / Wilmer Calderon - Eduardo
Жиб Герард / Gib Gerard - Evan
Майкл Айронсайд / Michael Ironside - Tom McClain
Пол Джеймс / Paul James - Marcus
Гонсало Менендес / Gonzalo Menendez - Ben
Хезер Соссамэн / Heather Sossaman - Lizzie
и др.
Описание: Дочка богатенького папаши, вместе с друзьями по разуму, решает провести веселые выходные на ранчо в изолированной местности. Но вскоре они обнаруживают, что за личиной доброго и услужливого сторожа, скрывается кровожадный и расчетливый зверь.Доп. информация:
ВНИМАНИЕ!!!НЕНОРМАТИВНАЯ ЛЕКСИКА!!!18+!!!
Качество видео: WEB-DLRip [WEB-DL 720p]
Формат видео: AVI
Видео кодек: XviD
Аудио кодек: AC3
Видео: 720x400 (1,80:1), 23,976 fps, XviD, 1981 kbps avg, 0.287 bit/pixel
Аудио 1: Rus 192.00 kbps avg, 48,0 kHz, 2 ch, AC3 Dolby Digital DVO
Аудио 2: Eng 192.00 kbps avg, 48,0 kHz, 2 ch, AC3 Dolby Digital

MediaInfo

Общее
Полное имя : C:\ Desecrated.2015.DVO.WEB-DLRip.by medvezhonokkkk.avi
Формат : AVI
Формат/Информация : Audio Video Interleave
Размер файла : 1,37 Гбайт
Продолжительность : 1 ч. 22 м.
Общий поток : 2380 Кбит/сек
Программа кодирования : VirtualDubMod 1.5.10.3 | www.virtualdub-fr.org || (build 2550/release)
Библиотека кодирования : VirtualDubMod build 2550/release
Видео
Идентификатор : 0
Формат : MPEG-4 Visual
Профиль формата : Advanced Simple@L5
Параметр BVOP формата : 1
Параметр QPel формата : Нет
Параметр GMC формата : Без точки перехода
Параметр матрицы формата : Выборочная
Идентификатор кодека : XVID
Идентификатор кодека/Подсказка : XviD
Продолжительность : 1 ч. 22 м.
Битрейт : 1981 Кбит/сек
Ширина : 720 пикселей
Высота : 400 пикселей
Соотношение сторон : 16:9
Частота кадров : 23,976 кадра/сек
Цветовое пространство : YUV
Субдискретизация насыщенности : 4:2:0
Битовая глубина : 8 бит
Тип развёртки : Прогрессивная
Метод сжатия : С потерями
Бит/(Пиксели*Кадры) : 0.287
Размер потока : 1,14 Гбайт (83%)
Библиотека кодирования : XviD 73
Аудио #1
Идентификатор : 1
Формат : AC-3
Формат/Информация : Audio Coding 3
Расширение режима : CM (complete main)
Параметр Endianness формата : Big
Идентификатор кодека : 2000
Продолжительность : 1 ч. 22 м.
Вид битрейта : Постоянный
Битрейт : 192 Кбит/сек
Каналы : 2 канала
Расположение каналов : Front: L R
Частота : 48,0 КГц
Битовая глубина : 16 бит
Метод сжатия : С потерями
Размер потока : 113 Мбайт (8%)
Выравнивание : Разделение по промежуткам
Продолжительность промежутка : 42 мс. (1,00 видеокадр)
Время предзагрузки промежутка : 500 мс.
Аудио #2
Идентификатор : 2
Формат : AC-3
Формат/Информация : Audio Coding 3
Расширение режима : CM (complete main)
Параметр Endianness формата : Big
Идентификатор кодека : 2000
Продолжительность : 1 ч. 22 м.
Вид битрейта : Постоянный
Битрейт : 192 Кбит/сек
Каналы : 2 канала
Расположение каналов : Front: L R
Частота : 48,0 КГц
Битовая глубина : 16 бит
Метод сжатия : С потерями
Задержка видео : 7 мс.
Размер потока : 113 Мбайт (8%)
Выравнивание : Разделение по промежуткам
Продолжительность промежутка : 42 мс. (1,00 видеокадр)
Время предзагрузки промежутка : 500 мс.
Скриншот c названием фильма Скриншоты
Скачать

Скачать торрент!

Как скачивать? · Что такое торрент? · Рейтинг и ограничения

Сайт не распространяет и не хранит электронные версии произведений, а лишь предоставляет доступ к создаваемому пользователями каталогу ссылок на торрент-файлы, которые содержат только списки хеш-сумм

[Профиль] [ЛС]
Показать сообщения:    
Ответить на тему

Текущее время: Сегодня 20:03

Часовой пояс: GMT + 4



Вы не можете начинать темы
Вы не можете отвечать на сообщения
Вы не можете редактировать свои сообщения
Вы не можете удалять свои сообщения
Вы не можете голосовать в опросах
Вы не можете прикреплять файлы к сообщениям
Вы не можете скачивать файлы