Пылающая высь / Горящая синева / Burning Blue (Д.М.В Грир / D.M.W. Greer) [2013, США, драма, гей-тема, WEB-DL 1080p] VO (Kirill Ivanov) + Original Eng + Sub Rus

Ответить на тему
 
Автор Сообщение

user ®

Стаж: 7 лет 7 месяцев

Сообщений: 20008

Пост Пост: #1 от 15-Мар-2015 16:36

[Цитировать]

Пылающая высь / Горящая синева / Burning Blue
Страна: США
Жанр: Драма, военный
Год выпуска: 2013
Продолжительность: 01:44:49
Перевод: Одноголосый закадровый Kirill Ivanov по субтитрам БлогБастер
Субтитры: Русские, SRT
Оригинальная аудиодорожка: Английский
Режиссер: Д.М.В Грир / D.M.W. Greer
В ролях: Трент Форд, Тэмми Бланчард, Морган Спектор, Роб Майес, Уильям Ли Скотт, Коттер Смит, Майкл Кампсти, Майкл Сироу, Марк Доэрти, Крис Чок и др. .
Описание: США. Начало 90-х. После череды трагических аварий самолетов, базирующихся на авианосце,
командование направляет на корабль правительственного агента, чтобы выяснить причины произошедшего.
В ходе расследования выясняется, что на борту авианосца есть пилоты скрывающие свою гей-ориентацию.
С этого момента военнослужащие становятся жертвами современной «охоты на ведьм», которая навсегда изменит их жизнь.

Качество видео: WEB-DL 1080p
Формат видео: MKV
Видео: AVC; 1900x1068 (16:9); 23,976 fps; ~4572 kbps
Аудио 1 : AC3; 48 kHz; 5.1 (Front: L C R, Side: L R, LFE); 448 kbps | VO
Аудио 2 : AC3; 48 kHz; 5.1 (Front: L C R, Side: L R, LFE); 384 kbps| Original

СЕМПЛ
MediaInfo
Общее
Полное имя : Burning Blue (2013) K_I.mkv
Формат : Matroska
Версия формата : Version 4 / Version 2
Размер файла : 4,03 Гбайт
Продолжительность : 1 ч. 44 м.
Общий поток : 5505 Кбит/сек
Название фильма : Burning Blue (2013) K_I
Дата кодирования : UTC 2015-03-11 20:55:59
Программа кодирования : mkvmerge v7.7.0 ('Six Voices') 64bit built on Feb 28 2015 23:39:33
Библиотека кодирования : libebml v1.3.1 + libmatroska v1.4.2
Видео
Идентификатор : 1
Формат : AVC
Формат/Информация : Advanced Video Codec
Профиль формата : High@L4.0
Параметр CABAC формата : Да
Параметр ReFrames формата : 4 кадра
Идентификатор кодека : V_MPEG4/ISO/AVC
Продолжительность : 1 ч. 44 м.
Битрейт : 4564 Кбит/сек
Ширина : 1900 пикселей
Высота : 1068 пикселей
Соотношение сторон : 16:9
Режим частоты кадров : Постоянный
Частота кадров : 23,976 кадра/сек
Цветовое пространство : YUV
Субдискретизация насыщенности : 4:2:0
Битовая глубина : 8 бит
Тип развёртки : Прогрессивная
Бит/(Пиксели*Кадры) : 0.094
Размер потока : 3,34 Гбайт (83%)
Язык : English
Default : Да
Forced : Нет
Основные цвета : BT.709
Характеристики трансфера : BT.709
Коэффициенты матрицы : BT.709
colour_range : Limited
Аудио #1
Идентификатор : 2
Формат : AC-3
Формат/Информация : Audio Coding 3
Расширение режима : CM (complete main)
Параметр Endianness формата : Big
Идентификатор кодека : A_AC3
Продолжительность : 1 ч. 44 м.
Вид битрейта : Постоянный
Битрейт : 448 Кбит/сек
Каналы : 6 каналов
Расположение каналов : Front: L C R, Side: L R, LFE
Частота : 48,0 КГц
Битовая глубина : 16 бит
Метод сжатия : С потерями
Размер потока : 336 Мбайт (8%)
Язык : Russian
Default : Да
Forced : Нет
Аудио #2
Идентификатор : 3
Формат : AC-3
Формат/Информация : Audio Coding 3
Расширение режима : CM (complete main)
Параметр Endianness формата : Big
Идентификатор кодека : A_AC3
Продолжительность : 1 ч. 44 м.
Вид битрейта : Постоянный
Битрейт : 384 Кбит/сек
Каналы : 6 каналов
Расположение каналов : Front: L C R, Side: L R, LFE
Частота : 48,0 КГц
Битовая глубина : 16 бит
Метод сжатия : С потерями
Размер потока : 288 Мбайт (7%)
Язык : English
Default : Нет
Forced : Нет
Текст
Идентификатор : 4
Формат : UTF-8
Идентификатор кодека : S_TEXT/UTF8
Идентификатор кодека/Информация : UTF-8 Plain Text
Язык : Russian
Default : Нет
Forced : Нет
Меню
00:00:00.000 : en:Chapter 1
00:01:14.000 : en:Chapter 2
00:10:42.000 : en:Chapter 3
00:19:32.000 : en:Chapter 4
00:31:17.000 : en:Chapter 5
00:40:57.000 : en:Chapter 6
00:49:16.000 : en:Chapter 7
00:58:09.000 : en:Chapter 8
01:07:12.000 : en:Chapter 9
01:16:43.000 : en:Chapter 10
01:25:02.000 : en:Chapter 11
01:33:00.000 : en:Chapter 12
01:38:29.000 : en:Chapter 13
Скриншот с названием фильма Скриншоты
Скачать

Скачать торрент!

Как скачивать? · Что такое торрент? · Рейтинг и ограничения

Сайт не распространяет и не хранит электронные версии произведений, а лишь предоставляет доступ к создаваемому пользователями каталогу ссылок на торрент-файлы, которые содержат только списки хеш-сумм

[Профиль] [ЛС]
Показать сообщения:    
Ответить на тему

Текущее время: Сегодня 13:42

Часовой пояс: GMT + 4



Вы не можете начинать темы
Вы не можете отвечать на сообщения
Вы не можете редактировать свои сообщения
Вы не можете удалять свои сообщения
Вы не можете голосовать в опросах
Вы не можете прикреплять файлы к сообщениям
Вы не можете скачивать файлы