Эдмонд был ослом / Edmond etait un ane (Франк Дион / Franck Dion) [2012, Драма, DVDRip] VO (Max Nabokov) + Original Fre

Ответить на тему
 
Автор Сообщение

user ®

Стаж: 12 лет

Сообщений: 15145

Пост Пост: #1 от 15-Мар-2015 13:30

[Цитировать]

Эдмонд был ослом / Edmond etait un ane
Страна: Франция
Жанр: Драма
Продолжительность: 0:15:02
Год выпуска: 2012
Перевод: Одноголосый закадровый (Max Nabokov)
Русские субтитры: нет
Оригинальная аудиодорожка: французский
Режиссёр: Франк Дион / Franck Dion
Роли озвучивали: Беранжер Бонвуазен, Патрик Бушите, Бенуа Брион, Дэниэл Брошу, Ричард Дюмон, Кэтлин Фи, Гаэтан Гайе, Кент МакКвейд
Описание: Коллеги однажды подшутили над Эдмондом увенчав его бумажными ослиными ушами. Но это лишь помогло ему осознать свою истинную природу. Так становясь ослом, Эдмонд понимает какая же пропасть разделяет его от остальными людей.
Семпл
Качество: DVDRip
Формат: AVI
Видео: 720x304 (2.37:1), 24 fps, XviD build 50 ~1180 kbps avg, 0.22 bit/pixel
Аудио: #1: 48 kHz, MPEG Layer 3, 2 ch, ~128.00 kbps avg (рус)
Аудио: #2: 44.100 kHz, MPEG Layer 3, 2 ch, ~128.00 kbps avg (фр)
Подробные технические данные
GeneralComplete name : E:\Edmond etait un ane\Edmond etait un ane. 2012. Franck Dion. (vo Max Nabokov).aviFormat : AVIFormat/Info : Audio Video InterleaveFile size : 156 MiBDuration : 15mn 2sOverall bit rate : 1 452 KbpsWriting application : VirtualDubMod 1.5.10.2 (build 2540/release)Writing library : VirtualDubMod build 2540/release
VideoID : 0Format : MPEG-4 VisualFormat profile : Advanced Simple@L5Format settings, BVOP : 2Format settings, QPel : NoFormat settings, GMC : No warppointsFormat settings, Matrix : Default (MPEG)Codec ID : XVIDCodec ID/Hint : XviDDuration : 15mn 2sBit rate : 1 181 KbpsWidth : 720 pixelsHeight : 304 pixelsDisplay aspect ratio : 2.35:1Frame rate : 24.000 fpsColor space : YUVChroma subsampling : 4:2:0Bit depth : 8 bitsScan type : ProgressiveCompression mode : LossyBits/(Pixel*Frame) : 0.225Stream size : 127 MiB (81%)Writing library : XviD 1.2.1 (UTC 2008-12-04)
Audio #1ID : 1Format : MPEG AudioFormat version : Version 1Format profile : Layer 3Codec ID : 55Codec ID/Hint : MP3Duration : 15mn 2sBit rate mode : ConstantBit rate : 128 KbpsChannel(s) : 2 channelsSampling rate : 48.0 KHzCompression mode : LossyStream size : 13.8 MiB (9%)Alignment : Aligned on interleavesInterleave, duration : 42 ms (1.00 video frame)Interleave, preload duration : 504 msWriting library : LAME3.99rEncoding settings : -m s -V 4 -q 3 -lowpass 17 -b 128
Audio #2ID : 2Format : MPEG AudioFormat version : Version 1Format profile : Layer 3Codec ID : 55Codec ID/Hint : MP3Duration : 15mn 2sBit rate mode : ConstantBit rate : 128 KbpsChannel(s) : 2 channelsSampling rate : 44.1 KHzCompression mode : LossyStream size : 13.8 MiB (9%)Alignment : Split accross interleavesInterleave, duration : 42 ms (1.00 video frame)Interleave, preload duration : 500 msWriting library : LAME3.99rEncoding settings : -m s -V 4 -q 2 -lowpass 17 -b 128
Скриншоты
Скачать

Скачать торрент! Эдмонд был ослом / Edmond etait un ane (Франк Дион / Franck Dion) [2012, Драма, DVDRip] VO (Max Nabokov) + Original Fre

Как скачивать? · Что такое торрент? · Рейтинг и ограничения

Сайт не распространяет и не хранит электронные версии произведений, а лишь предоставляет доступ к создаваемому пользователями каталогу ссылок на торрент-файлы, которые содержат только списки хеш-сумм

[Профиль] [ЛС]
Показать сообщения:    
Ответить на тему

Текущее время: Сегодня 12:31

Часовой пояс: GMT + 4



Вы не можете начинать темы
Вы не можете отвечать на сообщения
Вы не можете редактировать свои сообщения
Вы не можете удалять свои сообщения
Вы не можете голосовать в опросах
Вы не можете прикреплять файлы к сообщениям
Вы не можете скачивать файлы