Территория Джа (Алексей Пантелеев) [2015, Комедия,Фантастика, Фэнтези, BDRip]

Ответить на тему
 
Автор Сообщение

user ®

Стаж: 7 лет 7 месяцев

Сообщений: 20008

Пост Пост: #1 от 15-Мар-2015 10:24

[Цитировать]

Территория Джа
Жанр: Комедия,Фантастика, Фэнтези
Год выпуска: 2015
Продолжительность: 01:34:23
Режиссёр: Алексей Пантелеев
В ролях: Вадим Шлахтер, Александр Лаэртский, Сергей Белоголовцев, Кирилл Нагиев, Венчислав Хотяновский, Ян Воробьев, Дмитрий Нагиев, Михаил Разинкин, Елена Беркова, Евгений Корона
Описание: К нашей планете летят метеориты, люди принимают решение каким-то способом отодвинуть Землю в сторону от смертоносного потока. Они цепляют земной шарик к космическому кораблю и оттаскивают, но так опрометчиво, что помещают ее рядом с другой планетой, которую населяют странные существа, подчиняющиеся смешному богу Джа. И начинается конфликт…

Качество видео: BDRip
Формат видео: AVI
Видео: Xvid 720x400 25fps 963kbps
Аудио: MP3 48000Hz stereo 128kbps
MediaInfo
Format : AVI
Format/Info : Audio Video Interleave
File size : 744 MiB
Duration : 1h 34mn
Overall bit rate : 1 101 Kbps
Writing application : VirtualDubMod 1.5.10.3 | www.virtualdub-fr.org || (build 2550/release)
Writing library : VirtualDubMod build 2550/release
Video
ID : 0
Format : MPEG-4 Visual
Format profile : Advanced Simple@L5
Format settings, BVOP : 1
Format settings, QPel : No
Format settings, GMC : No warppoints
Format settings, Matrix : Default (MPEG)
Codec ID : XVID
Codec ID/Hint : XviD
Duration : 1h 34mn
Bit rate : 964 Kbps
Width : 720 pixels
Height : 400 pixels
Display aspect ratio : 16:9
Frame rate : 25.000 fps
Color space : YUV
Chroma subsampling : 4:2:0
Bit depth : 8 bits
Scan type : Progressive
Compression mode : Lossy
Bits/(Pixel*Frame) : 0.134
Stream size : 651 MiB (87%)
Writing library : XviD 73
Audio
ID : 1
Format : MPEG Audio
Format version : Version 1
Format profile : Layer 3
Codec ID : 55
Codec ID/Hint : MP3
Duration : 1h 34mn
Bit rate mode : Constant
Bit rate : 128 Kbps
Channel(s) : 2 channels
Sampling rate : 48.0 KHz
Compression mode : Lossy
Stream size : 86.4 MiB (12%)
Alignment : Aligned on interleaves
Interleave, duration : 40 ms (1.00 video frame)
Interleave, preload duration : 504 ms
Writing library : LAME3.99r
Encoding settings : -m s -V 4 -q 2 -lowpass 17 -b 128
Скриншот c названием фильма Скриншоты
Скачать

Скачать торрент!

Как скачивать? · Что такое торрент? · Рейтинг и ограничения

Сайт не распространяет и не хранит электронные версии произведений, а лишь предоставляет доступ к создаваемому пользователями каталогу ссылок на торрент-файлы, которые содержат только списки хеш-сумм

[Профиль] [ЛС]
Показать сообщения:    
Ответить на тему

Текущее время: Сегодня 15:35

Часовой пояс: GMT + 4



Вы не можете начинать темы
Вы не можете отвечать на сообщения
Вы не можете редактировать свои сообщения
Вы не можете удалять свои сообщения
Вы не можете голосовать в опросах
Вы не можете прикреплять файлы к сообщениям
Вы не можете скачивать файлы