Человек, который плакал / По мертвым не плачут / Плачущий убийца / Crying Man / No Tears for the Dead / U-neun nam-ja (Ли Чжон Бом / Lee Jeong Beom) [2014, Южная Корея, драма, боевик, HDRip] DVO (GREEN TEA)

Ответить на тему
 
Автор Сообщение

user ®

Стаж: 13 лет

Сообщений: 15071

Пост Пост: #1 от 15-Мар-2015 01:51

[Цитировать]

Человек, который плакал / По мертвым не плачут / Плачущий убийца / Crying Man / No Tears for the Dead / U-neun nam-ja- -Страна: Южная Корея
Жанр: драма, боевик
Год выпуска: 2014
Продолжительность: 01:56:25-Перевод: Любительский (двухголосый закадровый) [GREEN TEA] & (Ольга Гринтиева и Константин Романов)-Cубтитры: нет
Оригинальная аудиодорожка: нет
Режиссер: Ли Чжон Бом / Lee Jeong Beom
В ролях: Чан Дон Гун, Ким Мин Хи, Брайан Ти, Дженнифер Баттелл, Алессандро Куомо, Дарелл М. Дави, Энтони Дилио, Ким Хи Вон...
Описание: Бросив свою мать, Кон эмигрировал в Америку, чтобы стать наемным убийцей. Однажды, во время выполнения очередного заказного убийства, Кон случайно убивает молодую девчушку и страдает от чувства вины за убийство невинного ребенка. Его босс дает киллеру новое задание — убить мать девочки. Новая цель Кона — Мо Кён работает менеджером в инвестиционной компании. Убитая горем мать хоронит себя в своей работе, не зная, что находится в самом центре опасного заговора. И тогда, она встречает человека, который хочет рассказать ей правду о смерти ее ребенка. Кон решил для себя, что он не позволит своим работодателям убить Мо Кён…
Релиз от - &
Сэмпл: http://multi-up.com/1038271
Качество видео: HDRip
Формат видео: AVI
Видео: MPEG-4 Visual at 1599 Кбит/сек; 720 x 304 (2.368) at 23.976 fps
Аудио: AC-3 at 192 Кбит/сек; 2 канала, 48,0 КГц
Автор -
MediaInfo
Общее
Полное имя : D:\Фильмы\Азиатские\По мёртвым не плачут\No Tears for the Dead.2014.HDRip.XviD.1400MB. rip by [Assassin's Creed].avi
Формат : AVI
Формат/Информация : Audio Video Interleave
Размер файла : 1,46 Гбайт
Продолжительность : 1 ч. 56 м.
Общий поток : 1800 Кбит/сек
Программа кодирования : VirtualDubMod 1.5.10.3 | www.virtualdub-fr.org || (build 2550/release)
Библиотека кодирования : VirtualDubMod build 2550/release
Видео
Идентификатор : 0
Формат : MPEG-4 Visual
Профиль формата : Advanced Simple@L5
Параметр BVOP формата : 1
Параметр QPel формата : Нет
Параметр GMC формата : Без точки перехода
Параметр матрицы формата : Default (MPEG)
Идентификатор кодека : XVID
Идентификатор кодека/Подсказка : XviD
Продолжительность : 1 ч. 56 м.
Битрейт : 1599 Кбит/сек
Ширина : 720 пикселей
Высота : 304 пикселя
Соотношение сторон : 2,35:1
Частота кадров : 23,976 кадра/сек
Цветовое пространство : YUV
Субдискретизация насыщенности : 4:2:0
Битовая глубина : 8 бит
Тип развёртки : Прогрессивная
Метод сжатия : С потерями
Бит/(Пиксели*Кадры) : 0.305
Размер потока : 1,30 Гбайт (89%)
Библиотека кодирования : XviD 1.2.1 (UTC 2008-12-04)
Аудио
Идентификатор : 1
Формат : AC-3
Формат/Информация : Audio Coding 3
Расширение режима : CM (complete main)
Параметр Endianness формата : Big
Идентификатор кодека : 2000
Продолжительность : 1 ч. 56 м.
Вид битрейта : Постоянный
Битрейт : 192 Кбит/сек
Каналы : 2 канала
Расположение каналов : Front: L R
Частота : 48,0 КГц
Битовая глубина : 16 бит
Метод сжатия : С потерями
Размер потока : 160 Мбайт (11%)
Выравнивание : Разделение по промежуткам
Продолжительность промежутка : 42 мс. (1,00 видеокадр)
Время предзагрузки промежутка : 500 мс.
Скриншот c названием фильма Скриншоты
Скачать

Скачать торрент! Человек, который плакал / По мертвым не плачут / Плачущий убийца / Crying Man / No Tears for the Dead / U-neun nam-ja (Ли Чжон Бом / Lee Jeong Beom) [2014, Южная Корея, драма, боевик, HDRip] DVO (GREEN TEA)

Как скачивать? · Что такое торрент? · Рейтинг и ограничения

Сайт не распространяет и не хранит электронные версии произведений, а лишь предоставляет доступ к создаваемому пользователями каталогу ссылок на торрент-файлы, которые содержат только списки хеш-сумм

[Профиль] [ЛС]
Показать сообщения:    
Ответить на тему

Текущее время: Сегодня 16:56

Часовой пояс: GMT + 4



Вы не можете начинать темы
Вы не можете отвечать на сообщения
Вы не можете редактировать свои сообщения
Вы не можете удалять свои сообщения
Вы не можете голосовать в опросах
Вы не можете прикреплять файлы к сообщениям
Вы не можете скачивать файлы