12 месяцев (Александр Баршак) [2013, Комедия, фэнтези, мелодрама, WEB-DLRip]

Ответить на тему
 
Автор Сообщение

user ®

Стаж: 7 лет 7 месяцев

Сообщений: 20008

Пост Пост: #1 от 15-Мар-2015 01:51

[Цитировать]

12 месяцев
Жанр: Комедия, фэнтези, мелодрама
Год выпуска: 2013
Продолжительность: 01:36:25
Режиссёр: Александр Баршак
В ролях: Алеса Качер, Иван Дорн, Артур Смольянинов, Екатерина Гусева, Армен Джигарханян, Александр Головин, Мария Сёмкина, Илья Ковальчук, Евгений Малкин, Максим Виторган, Александр Емельяненко
Описание: О чем может мечтать провинциальная девчонка, приехавшая покорять Москву? У главной героини фильма Маши Смирновой уже имеется список заветных желаний: грудь третьего размера, роскошная шуба, отдельная квартира, любовь и карьера звезды шоу-бизнеса. Когда в руки девушки попадает сказочная книга «12 месяцев», её мечты неожиданно начинают сбываться! Но у каждой медали есть оборотная сторона: желания Маши причиняют вред ее любимым людям. Теперь девушка должна сама бескорыстно творить «чудеса» для других, чтобы спасти своих близких и вернуть свою настоящую любовь.
Качество видео: WEB-DLRip [Исходник: WEB-DL (720p)]
Формат видео: AVI
Видео: XviD, 720x320 (2.25:1), 1777 Кбит/с, 24 кадр/с
Аудио: Русский, Dolby AC3, 48000 Гц, 384 Кбит/с, 6 каналов (5.1)

Автор рипа - ivandubskoj
MediaInfo
General
Complete name : 12.mesyatsev.2013.WEB-DLRip.avi
Format : AVI
Format/Info : Audio Video Interleave
File size : 1.46 GiB
Duration : 1h 36mn
Overall bit rate : 2 169 Kbps
Writing application : VirtualDubMod 1.5.10.3 | www.virtualdub-fr.org || (build 2550/release)
Writing library : VirtualDubMod build 2550/release
Copyright : rip by ivandubskoj
Video
ID : 0
Format : MPEG-4 Visual
Format profile : Advanced Simple@L5
Format settings, BVOP : 1
Format settings, QPel : No
Format settings, GMC : No warppoints
Format settings, Matrix : Custom
Codec ID : XVID
Codec ID/Hint : XviD
Duration : 1h 36mn
Bit rate : 1 777 Kbps
Width : 720 pixels
Height : 320 pixels
Display aspect ratio : 2.25:1
Frame rate : 24.000 fps
Color space : YUV
Chroma subsampling : 4:2:0
Bit depth : 8 bits
Scan type : Progressive
Compression mode : Lossy
Bits/(Pixel*Frame) : 0.321
Stream size : 1.20 GiB (82%)
Writing library : XviD 73
Audio
ID : 1
Format : AC-3
Format/Info : Audio Coding 3
Mode extension : CM (complete main)
Codec ID : 2000
Duration : 1h 36mn
Bit rate mode : Constant
Bit rate : 384 Kbps
Channel(s) : 6 channels
Channel positions : Front: L C R, Side: L R, LFE
Sampling rate : 48.0 KHz
Bit depth : 16 bits
Compression mode : Lossy
Stream size : 265 MiB (18%)
Alignment : Split accross interleaves
Interleave, duration : 64 ms (1.54 video frames)
Interleave, preload duration : 500 ms
Скриншот c названием фильма Скриншоты
Скачать

Скачать торрент!

Как скачивать? · Что такое торрент? · Рейтинг и ограничения

Сайт не распространяет и не хранит электронные версии произведений, а лишь предоставляет доступ к создаваемому пользователями каталогу ссылок на торрент-файлы, которые содержат только списки хеш-сумм

[Профиль] [ЛС]
Показать сообщения:    
Ответить на тему

Текущее время: Сегодня 23:52

Часовой пояс: GMT + 4



Вы не можете начинать темы
Вы не можете отвечать на сообщения
Вы не можете редактировать свои сообщения
Вы не можете удалять свои сообщения
Вы не можете голосовать в опросах
Вы не можете прикреплять файлы к сообщениям
Вы не можете скачивать файлы