Граф Монтенегро (Марина Мигунова, Татьяна Маковчик) [2006 г., Приключения, комедия, HDDVDRip]

Ответить на тему
 
Автор Сообщение

user ®

Стаж: 7 лет 7 месяцев

Сообщений: 20008

Пост Пост: #1 от 15-Мар-2015 01:51

[Цитировать]

Граф Монтенегро
Год выпуска: 2006
Страна: Россия
Жанр: комедия, приключения
Продолжительность: 01:52:33
Режиссер: Марина Мигунова, Татьяна Маковчик
В ролях: Александр Домогаров (Михаил Милорадович), Евгения Брик (Славка), Алексей Чадов (Андрей Телешев), Виктор Бычков (Отец Сергий), Миодраг Влахович, Александр Кольцов (Богуш), Валерий Марьянов (Милош), Инна Милорадова, М. Нелевич, В. Оташевич, Наталья Титаева (Мать Андрея), Алан Ужегов (канцлер)-Бюджет: $2 500 000-Описание: Смертельно раненый во время восстания декабристов генерал-губернатор Санкт-Петербурга Михаил Милорадович, открывает тайну спрятанных в горах Черногории сокровищ своей возлюбленной - актрисе Екатерине Телешевой. Её потомок - Андрей Телешев - безуспешно пытается расшифровать доставшуюся по наследству драгоценную карту. Но это копия...
Оригинал карты принадлежит потомку Милорадовича - Михаилу - встреча, которого с Андреем подталкивает его на поездку в Черногорию. По прихоти предков, только вдвоем они способны найти клад. Неожиданно у них появляется серьезный конкурент в лице священнослужителя Отца Сергия, который, случайно узнав о тайне, также претендует на сокровища.
Кладоискателей ждут комичные ситуации, невероятные приключения и, конечно, любовь. Черногорская красавица Славка должна помочь авантюристам осуществить их мечту, но посреди бесконечного карнавала в древнем городе высоко в горах, героям не избежать её чар... Дикие скалы, ледяные пещеры, мрачные крепости, суровые горцы и безудержное стремление к заветной цели навсегда изменят судьбы наших героев!
-[url=http://***/forum/viewtopic.php?t=1677970] [/url]Рейтинг
kinopoisk.ru: 5.783 (1344)
imdb.com: 5.0 (86)
-Качество: HDDVDRip (Исходник: HDDVD Disk)
Формат: AVI //SAMPLE//
Видео: 704x384 (1.83:1), 23.976 fps, XviD build 66 ~2323 kbps avg, 0.36 bit/pixel
Аудио: 48 kHz, AC3 Dolby Digital, 3/2 (L,C,R,l,r) + LFE ch, ~448 kbps

MediaInfo
Общее
Полное имя : F:\Video\AVI\Films\Graf.Montenegro.2006.RUS.HDDVDRip.XviD.AC3.-AllFilms.avi
Формат : AVI
Формат/Информация : Audio Video Interleave
Профиль формата : OpenDML
Размер файла : 2,18 Гбайт
Продолжительность : 1 ч. 52 м.
Общий поток : 2778 Кбит/сек
Название фильма : Граф Монтенегро (2006)
Режиссёр : Shevon (HDDVD 1080i)
Программа кодирования : VirtualDubMod 1.5.10.3 | www.virtualdub-fr.org || (build 2550/release)
Правообладатель : AllFilms (***)
Видео
Идентификатор : 0
Формат : MPEG-4 Visual
Профиль формата : Advanced Simple@L5
Параметр BVOP формата : 1
Параметр QPel формата : Нет
Параметр GMC формата : Без точки перехода
Параметр матрицы формата : Выборочная
Идентификатор кодека : XVID
Идентификатор кодека/Подсказка : XviD
Продолжительность : 1 ч. 52 м.
Битрейт : 2318 Кбит/сек
Ширина : 704 пикселя
Высота : 384 пикселя
Соотношение сторон : 1,85:1
Частота кадров : 23,976 кадра/сек
Цветовое пространство : YUV
Субдискретизация насыщенности : 4:2:0
Битовая глубина : 8 бит
Тип развёртки : Прогрессивная
Метод сжатия : С потерями
Бит/(Пиксели*Кадры) : 0.358
Размер потока : 1,82 Гбайт (83%)
Библиотека кодирования : XviD 66
Аудио
Идентификатор : 1
Формат : AC-3
Формат/Информация : Audio Coding 3
Расширение режима : CM (complete main)
Параметр Endianness формата : Big
Идентификатор кодека : 2000
Продолжительность : 1 ч. 52 м.
Вид битрейта : Постоянный
Битрейт : 448 Кбит/сек
Каналы : 6 каналов
Расположение каналов : Front: L C R, Side: L R, LFE
Частота : 48,0 КГц
Битовая глубина : 16 бит
Метод сжатия : С потерями
Размер потока : 361 Мбайт (16%)
Выравнивание : Разделение по промежуткам
Продолжительность промежутка : 42 мс. (1,00 видеокадр)
Время предзагрузки промежутка : 500 мс.
Скриншоты -
Скачать

Скачать торрент!

Как скачивать? · Что такое торрент? · Рейтинг и ограничения

Сайт не распространяет и не хранит электронные версии произведений, а лишь предоставляет доступ к создаваемому пользователями каталогу ссылок на торрент-файлы, которые содержат только списки хеш-сумм

[Профиль] [ЛС]
Показать сообщения:    
Ответить на тему

Текущее время: Сегодня 09:46

Часовой пояс: GMT + 4



Вы не можете начинать темы
Вы не можете отвечать на сообщения
Вы не можете редактировать свои сообщения
Вы не можете удалять свои сообщения
Вы не можете голосовать в опросах
Вы не можете прикреплять файлы к сообщениям
Вы не можете скачивать файлы