Фокус / Focus (Гленн Фикарра, Джон Рекуа / Glenn Ficarra, John Requa) [2015, США, драма, мелодрама, комедия, криминал, WEBRip] Dub (звук с CAMRip)

Ответить на тему
 
Автор Сообщение

user ®

Стаж: 7 лет 7 месяцев

Сообщений: 20008

Пост Пост: #1 от 15-Мар-2015 01:51

[Цитировать]

Фокус / Focus
Страна: США
Жанр: драма, мелодрама, комедия, криминал
Год выпуска: 2015
Продолжительность: 01:44:37
Перевод: Профессиональный (дублированный) звук с CAMRip
Cубтитры: Присуствуют неотключаемые китайские субтитры
Режиссер: Гленн Фикарра, Джон Рекуа / Glenn Ficarra, John Requa
В ролях: Уилл Смит, Марго Робби, Родриго Санторо, Джералд МакРэйни, Б.Д. Вонг, Роберт Тейлор, Бреннан Браун, Адриан Мартинес, Лаура Флэннери, Стефани Онор
Описание: История об опытном мошеннике, который влюбляется в девушку, делающую первые шаги на поприще нелегального отъема средств у граждан. Отношения становятся для них проблемой, когда обнаруживается, что романтика мешает их нечестному бизнесу.
Сэмпл: http://multi-up.com/1038215
Качество видео: WEBRip
Формат видео: AVI
Видео: 720x400 (16:9), 30.000 fps, XviD 1.2.1 ~1735 kbps avg, 0.201 bit/pixel
Аудио: 44.1 kHz, MP3, 2 ch, ~128 kbps

MediaInfo
General
Complete name : F:\Download\f.0.k.u.C.avi
Format : AVI
Format/Info : Audio Video Interleave
File size : 1.37 GiB
Duration : 1h 44mn
Overall bit rate : 1 875 Kbps
Writing application : VirtualDubMod 1.5.10.3 | www.virtualdub-fr.org || (build 2550/release)
Writing library : VirtualDubMod build 2550/release
Video
ID : 0
Format : MPEG-4 Visual
Format profile : Advanced Simple@L5
Format settings, BVOP : 2
Format settings, QPel : No
Format settings, GMC : No warppoints
Format settings, Matrix : Default (MPEG)
Codec ID : XVID
Codec ID/Hint : XviD
Duration : 1h 44mn
Bit rate : 1 735 Kbps
Width : 720 pixels
Height : 400 pixels
Display aspect ratio : 16:9
Frame rate : 30.000 fps
Color space : YUV
Chroma subsampling : 4:2:0
Bit depth : 8 bits
Scan type : Progressive
Compression mode : Lossy
Bits/(Pixel*Frame) : 0.201
Stream size : 1.27 GiB (93%)
Writing library : XviD 1.2.1 (UTC 2008-12-04)
Audio
ID : 1
Format : MPEG Audio
Format version : Version 1
Format profile : Layer 3
Codec ID : 55
Codec ID/Hint : MP3
Duration : 1h 44mn
Bit rate mode : Constant
Bit rate : 128 Kbps
Channel(s) : 2 channels
Sampling rate : 44.1 KHz
Compression mode : Lossy
Stream size : 95.8 MiB (7%)
Alignment : Split accross interleaves
Interleave, duration : 33 ms (1.00 video frame)
Interleave, preload duratio : 500 ms
Скриншот c названием фильма Скриншоты
Скачать

Скачать торрент!

Как скачивать? · Что такое торрент? · Рейтинг и ограничения

Сайт не распространяет и не хранит электронные версии произведений, а лишь предоставляет доступ к создаваемому пользователями каталогу ссылок на торрент-файлы, которые содержат только списки хеш-сумм

[Профиль] [ЛС]

utoo2

Стаж: 1 год 8 месяцев

Сообщений: 2

Пост Пост: #2 от 05-Апр-2015 20:39 (спустя 21 день)

[Цитировать]

Ничего так фильмец, Уилл Смит как всегда отжигает :)

_________________
films.imhonet.ру/element/10035316/
[Профиль] [ЛС]
Показать сообщения:    
Ответить на тему

Текущее время: Сегодня 10:07

Часовой пояс: GMT + 4



Вы не можете начинать темы
Вы не можете отвечать на сообщения
Вы не можете редактировать свои сообщения
Вы не можете удалять свои сообщения
Вы не можете голосовать в опросах
Вы не можете прикреплять файлы к сообщениям
Вы не можете скачивать файлы