Перестрелка в Локандвале / Shootout at Lokhandwala (Апурва Лакхиа / Apoorva Lakhia) [2007, Индия, Драма, HDRip] MVO + Sub Rus (песни)

Ответить на тему
 
Автор Сообщение

user ®

Стаж: 12 лет

Сообщений: 15092

Пост Пост: #1 от 14-Мар-2015 19:39

[Цитировать]

Перестрелка в Локандвале / Shootout at Lokhandwala Год выпуска: 2007
Страна: Индия
Жанр: Драма
Продолжительность: 02:02:05
Перевод: Профессиональный (многоголосый, закадровый)
Русские субтитры: Есть (только на песни)--Режиссер: Апурва Лакхиа /Apoorva Lakhia-В ролях: Санджай Датт, Сунил Шетти, Амитабх Баччан, Вивек Оберой, Тушар Капур, Арбаз Кхан, Рохит Рой, Шаббир Алувалиа, Адитья Лакхия и др.--Описание: В основу сюжета картины положена реальная история перестрелки между полицейскими и гангстерами в Свами Самарнатхе, пригороде Мумбая, который теперь известен как Локандвала.
Это случилось в 1992 году, когда засевшие в одной из квартир 6 главарей мафии отстреливались от полицейских в течение 6 часов. Не перестрелка, а настоящее сражение, в котором было задействовано 255 полицейских, возглавляемых полицейским инспектором Кханом, и выпущено 1755 пуль. Во время этой операции Кхан настолько превысил полномочия по зачистке, что попал под внутреннее расследование в своем же департаменте.
Перестрелка в Локандвале - это история начинающего бандита Майи и его опытного партнера Дилипа. Эти двое открыли новую главу в преступном ремесле гангстеров Мумбая начала 90-ых. Они осмелились не повиноваться королю преступного мира, тем самым привлекая к себе внимание Кхана и его команды. И Кхан, и Майя были настолько преданы своему делу, что личная жизнь не имела для них большого значения.- --Качество: HDRip
Исходник: BDRip 1080p
Формат видео: AVI-Видео: 720x304 (2.37:1), 24.000 fps, XviD build 50 ~1504 kbps avg, 0.29 bit/pixel
Аудио: 48 kHz, AC3 Dolby Digital, 2/0 (L,R) ch, ~192 kbps
Формат субтитров: hardsub (неотключаемые, вшитые в картинку)--Сэмпл / Sample-Сведение звука: The_Mummy (спасибо!)
Риппер: soso4eg-- -
-
Скриншот с названием
-
Скриншоты
-
MediaInfo
General
Complete name : P:\[Релизы]\Perestrelka.v.Lokandvale.2007.HDRip.XviD-soso4eg.avi
Format : AVI
Format/Info : Audio Video Interleave
File size : 1.45 GiB
Duration : 2h 2mn
Overall bit rate : 1 706 Kbps
Movie name : Shootout.at.Lokhandwala.2007.HDRip.XviD-soso4eg
Director : soso4eg
Writing application : VirtualDubMod 1.5.10.3 | www.virtualdub-fr.org || (build 2550/release)
Original source form/Name : Hindi
Copyright : специально для BitTorrent трекер *** (ex torrents.ru)
Comment : проф. перевод + рус. суб. к песням
Video
ID : 0
Format : MPEG-4 Visual
Format profile : Advanced Simple@L5
Format settings, BVOP : 2
Format settings, QPel : No
Format settings, GMC : No warppoints
Format settings, Matrix : Default (H.263)
Codec ID : XVID
Codec ID/Hint : XviD
Duration : 2h 2mn
Bit rate : 1 504 Kbps
Width : 720 pixels
Height : 304 pixels
Display aspect ratio : 2.35:1
Frame rate : 24.000 fps
Color space : YUV
Chroma subsampling : 4:2:0
Bit depth : 8 bits
Scan type : Progressive
Compression mode : Lossy
Bits/(Pixel*Frame) : 0.286
Stream size : 1.28 GiB (88%)
Writing library : XviD 1.2.1 (UTC 2008-12-04)
Audio
ID : 1
Format : AC-3
Format/Info : Audio Coding 3
Mode extension : CM (complete main)
Format settings, Endianness : Big
Codec ID : 2000
Duration : 2h 2mn
Bit rate mode : Constant
Bit rate : 192 Kbps
Channel(s) : 2 channels
Channel positions : Front: L R
Sampling rate : 48.0 KHz
Bit depth : 16 bits
Compression mode : Lossy
Stream size : 168 MiB (11%)
Alignment : Split accross interleaves
Interleave, duration : 42 ms (1.00 video frame)
Interleave, preload duration : 500 ms
-Внимание! Перезалит торрент файл 14.03.2015 в связи с улучшением качества видео:
замена DVDRip на HDRip, добавлены субтитры на песни.
Скачать

Скачать торрент! Перестрелка в Локандвале / Shootout at Lokhandwala (Апурва Лакхиа / Apoorva Lakhia) [2007, Индия, Драма, HDRip] MVO + Sub Rus (песни)

Как скачивать? · Что такое торрент? · Рейтинг и ограничения

Сайт не распространяет и не хранит электронные версии произведений, а лишь предоставляет доступ к создаваемому пользователями каталогу ссылок на торрент-файлы, которые содержат только списки хеш-сумм

[Профиль] [ЛС]
Показать сообщения:    
Ответить на тему

Текущее время: Сегодня 05:29

Часовой пояс: GMT + 4



Вы не можете начинать темы
Вы не можете отвечать на сообщения
Вы не можете редактировать свои сообщения
Вы не можете удалять свои сообщения
Вы не можете голосовать в опросах
Вы не можете прикреплять файлы к сообщениям
Вы не можете скачивать файлы