Большой матч: Игра началась / Big Match (Хо Чои / Ho Choi) [2014, Южная Корея, боевик, HDTVRip] MVO

Ответить на тему
 
Автор Сообщение

user ®

Стаж: 13 лет

Сообщений: 15071

Пост Пост: #1 от 14-Мар-2015 13:27

[Цитировать]

Большой матч: Игра началась / Big Match Страна: Южная Корея
Жанр: боевик
Год выпуска: 2014
Продолжительность: 01:52:21
Перевод: Любительский (многоголосый закадровый)
Петр Слепцов, Константин Романов, Иван Матроскин (Мтрск), Ольга Гринтиева, Анастасия Лаглер
Cубтитры: нет
Оригинальная аудиодорожка: korean
Режиссер: Хо Чои / Ho Choi
В ролях: Ли Чжон Чжэ
Син Ха Гюн
Ли Сон Мин
BoA
Eui-sung Kim
До-Сик Парк
Ра Ми Ран
Сон Хо Чжун
Пэ Сон У
Ву-сик Чхве
Описание: Новичок корейской UFC лиги Чо Ик Хо (Ли Чжон Чжэ, Новый мир) казалось, будет иметь гладкий путь в его карьере бойца, ведь у него не только сила, но и тонкий юмор, которым он пользуется для выступлений. До тех пор, пока его брата не арестовывает полиция по ложному обвинению в убийстве. Вскоре полиция начала смотреть на Ик Хо с подозрением, и его арестовали. Когда становится ясно, что это все подстроено Тузом (Син Ха Гюн, Воры), который с помощью технологии превратил весь город в настольную игру, с гражданами, как пешками, Ик Хо не имеет другого выбора, кроме как принять условия гениального злодея и начать большой матч: игра началась!
«Большой матч: Игра началась» - южнокорейский развлекательный боевик от режиссера / сценариста Хо Чои. Это история успеха и беспрецедентного характера миссия, в которой используются главные спортивные достопримечательности Сеула, такие как Сангам стадион Кубка Мира. Поражающий бесконечный спринт действия и гоночный инстинкт главного героя, чтобы продемонстрировать свое будущее.
Доп. информация:
Перевод: Алексей Хорошавин
Редакция: Эльза Нордж
Релиз группы: GREEN TEA

Работы со звуком: Ольга Гринтиева


Сэмпл: http://multi-up.com/1038169
Качество видео: HDTVRip
Формат видео: OpenDML AVI
Видео:720x576 (1.25:1), 23.976 fps,AVС,1833 kbps avg,0.18 bit/pixel,0.18 bit/pixel
Аудио: MPEG Layer 3(MP3),320 Kbps,2 channels,48.0 KHz, 257.18 Mb
MediaInfo
General
Complete name : C:\Users\User\Downloads\Большой матч\Большой матч.avi
Format : AVI
Format/Info : Audio Video Interleave
Format profile : OpenDML
File size : 1.70 GiB
Duration : 1h 52mn
Overall bit rate : 2 161 Kbps
Writing application : Lavf54.63.104
Video
ID : 0
Format : AVC
Format/Info : Advanced Video Codec
Format profile : Main@L3.0
Format settings, CABAC : Yes
Format settings, ReFrames : 1 frame
Codec ID : H264
Duration : 1h 52mn
Bit rate : 1 843 Kbps
Width : 720 pixels
Height : 576 pixels
Display aspect ratio : 5:4
Frame rate mode : Variable
Frame rate : 23.976 fps
Standard : PAL
Color space : YUV
Chroma subsampling : 4:2:0
Bit depth : 8 bits
Scan type : Progressive
Bits/(Pixel*Frame) : 0.185
Stream size : 1.43 GiB (85%)
Writing library : x264 core 129
Encoding settings : cabac=1 / ref=1 / deblock=1:0:0 / analyse=0x1:0x131 / me=dia / subme=2 / psy=1 / psy_rd=1.00:0.00 / mixed_ref=0 / me_range=16 / chroma_me=1 / trellis=0 / 8x8dct=0 / cqm=0 / deadzone=21,11 / fast_pskip=1 / chroma_qp_offset=0 / threads=4 / lookahead_threads=1 / sliced_threads=0 / nr=0 / decimate=1 / interlaced=0 / bluray_compat=0 / constrained_intra=0 / bframes=0 / weightp=2 / keyint=250 / keyint_min=25 / scenecut=40 / intra_refresh=0 / rc_lookahead=40 / rc=abr / mbtree=1 / bitrate=1843 / ratetol=1.0 / qcomp=0.60 / qpmin=10 / qpmax=51 / qpstep=4 / ip_ratio=1.41 / aq=1:1.00
Audio
ID : 1
Format : MPEG Audio
Format version : Version 1
Format profile : Layer 3
Mode : Joint stereo
Mode extension : MS Stereo
Codec ID : 55
Codec ID/Hint : MP3
Duration : 1h 52mn
Bit rate mode : Constant
Bit rate : 320 Kbps
Channel(s) : 2 channels
Sampling rate : 48.0 KHz
Compression mode : Lossy
Stream size : 257 MiB (15%)
Alignment : Aligned on interleaves
Interleave, duration : 24 ms (0.58 video frame)
Writing library : LAME3.99.5
Скриншот c названием фильма Скриншоты
Скачать

Скачать торрент! Большой матч: Игра началась / Big Match (Хо Чои / Ho Choi) [2014, Южная Корея, боевик, HDTVRip] MVO

Как скачивать? · Что такое торрент? · Рейтинг и ограничения

Сайт не распространяет и не хранит электронные версии произведений, а лишь предоставляет доступ к создаваемому пользователями каталогу ссылок на торрент-файлы, которые содержат только списки хеш-сумм

[Профиль] [ЛС]
Показать сообщения:    
Ответить на тему

Текущее время: Сегодня 11:35

Часовой пояс: GMT + 4



Вы не можете начинать темы
Вы не можете отвечать на сообщения
Вы не можете редактировать свои сообщения
Вы не можете удалять свои сообщения
Вы не можете голосовать в опросах
Вы не можете прикреплять файлы к сообщениям
Вы не можете скачивать файлы