Убийца / Кара Небес! / Hitokiri / Tenchu! (Хидэо Гося / Hideo Gosha) [1969 , Япония, Самурайский, драма, DVDRip] VO (Andi) + Original (Jap) + Sub (Rus)

Ответить на тему
 
Автор Сообщение

user ®

Стаж: 13 лет

Сообщений: 15071

Пост Пост: #1 от 14-Мар-2015 01:36

[Цитировать]

Убийца (Кара Небес!) / Hitokiri (Tenchu!)
Страна: Япония
Жанр: Самурайский, драма
Год выпуска: 1969
Продолжительность: 02:14:36
Перевод: Одноголосый (закадровый) [Andi]
Оригинальная аудиодорожка: японский
Cубтитры: русские(*srt)
Режиссер: Хидэо Гося / Hideo Gosha
В ролях: Идзо Окада - Синтаро Кацу, Ханпэйта Такэти - Тацуя Накадаи, Рёма Сакамото - Юдзиро Исихара, Синбэй Танака - Юкио Мисима
Описание:
Киото, 1862 год. Япония переживает период Бакумацу, агонии сёгуната. Появление у её берегов «Черных Кораблей» под командованием американского командора Перри не оставило стране выбора: Япония должна выйти из самоизоляции, открыть себя для иностранных держав. В течение нескольких лет японское общество пребывает в шоке. Правительство подозревают в пособничестве иноземцам, и веками незыблемая власть сёгуната пошатнулась. Раз сёгун не может или не хочет защитить Японию от иноземцев — он должен вернуть власть императору, так считают «лоялисты». Только объединившись под властью императора, японцы смогут изгнать наглых варваров из страны и избежать порабощения. Мнения в обществе разделились. Ужас перед нашествием иноземцев и кризис власти вызвали смуту и междоусобицу в стране. Убеждённые патриоты из различных фракций проливают кровь друг друга. Южные кланы Сацума, Тёсю и Тоса примкнули к движению лоялистов: они сторонники возвращения власти императору и изгнания иноземцев из страны любой ценой….

Релиз:

Качество: DVDRip
Контейнер: AVI
Видео: 720x320 (2.25:1), 25 fps, XviD build 50 ~1299 kbps avg, 0.23 bit/pixel
Аудио: 48 kHz, AC3 Dolby Digital, 2/0 (L,R) ch, ~192 kbps| Русский

MI
Общее
Полное имя : C:\Users\Вячеслав\Downloads\Убийца_DVDRip_1460_Некул\Убийца_DVDRip_1460_Некул.avi
Формат : AVI
Формат/Информация : Audio Video Interleave
Размер файла : 1,41 Гбайт
Продолжительность : 2 ч. 14 м.
Общий поток : 1502 Кбит/сек
Программа кодирования : VirtualDubMod 1.5.10.3 | www.virtualdub-fr.org || (build 2550/release)
Библиотека кодирования : VirtualDubMod build 2550/release
Видео
Идентификатор : 0
Формат : MPEG-4 Visual
Профиль формата : Advanced Simple@L5
Параметр BVOP формата : 1
Параметр QPel формата : Нет
Параметр GMC формата : Без точки перехода
Параметр матрицы формата : Default (MPEG)
Идентификатор кодека : XVID
Идентификатор кодека/Подсказка : XviD
Продолжительность : 2 ч. 14 м.
Битрейт : 1300 Кбит/сек
Ширина : 720 пикселей
Высота : 320 пикселей
Соотношение сторон : 2,25:1
Частота кадров : 25,000 кадров/сек
Цветовое пространство : YUV
Субдискретизация насыщенности : 4:2:0
Битовая глубина : 8 бит
Тип развёртки : Прогрессивная
Метод сжатия : С потерями
Бит/(Пиксели*Кадры) : 0.226
Размер потока : 1,22 Гбайт (87%)
Библиотека кодирования : XviD 1.2.1 (UTC 2008-12-04)
Аудио
Идентификатор : 1
Формат : AC-3
Формат/Информация : Audio Coding 3
Расширение режима : CM (complete main)
Параметр Endianness формата : Big
Идентификатор кодека : 2000
Продолжительность : 2 ч. 14 м.
Вид битрейта : Постоянный
Битрейт : 192 Кбит/сек
Каналы : 2 канала
Расположение каналов : Front: L R
Частота : 48,0 КГц
Битовая глубина : 16 бит
Метод сжатия : С потерями
Размер потока : 184 Мбайт (13%)
Выравнивание : Разделение по промежуткам
Продолжительность промежутка : 40 мс. (1,00 видеокадр)
Время предзагрузки промежутка : 500 мс.
Скриншоты
Скачать

Скачать торрент! Убийца / Кара Небес! / Hitokiri / Tenchu! (Хидэо Гося / Hideo Gosha) [1969 , Япония, Самурайский, драма, DVDRip] VO (Andi) + Original (Jap) + Sub (Rus)

Как скачивать? · Что такое торрент? · Рейтинг и ограничения

Сайт не распространяет и не хранит электронные версии произведений, а лишь предоставляет доступ к создаваемому пользователями каталогу ссылок на торрент-файлы, которые содержат только списки хеш-сумм

[Профиль] [ЛС]
Показать сообщения:    
Ответить на тему

Текущее время: Сегодня 18:15

Часовой пояс: GMT + 4



Вы не можете начинать темы
Вы не можете отвечать на сообщения
Вы не можете редактировать свои сообщения
Вы не можете удалять свои сообщения
Вы не можете голосовать в опросах
Вы не можете прикреплять файлы к сообщениям
Вы не можете скачивать файлы