Люпэн III / Люпэн Третий / Lupin III / Lupin the Third (Китамура Рюхэй / Kitamura Ryuhei) [2014, Япония, экшен, комедия, DVDRip] Sub Rus

Ответить на тему
 
Автор Сообщение

user ®

Стаж: 13 лет

Сообщений: 15071

Пост Пост: #1 от 14-Мар-2015 01:36

[Цитировать]

Люпэн III / Люпэн Третий / Lupin III
Страна: Япония
Жанр: экшен, комедия
Год выпуска: 2014
Продолжительность: 02:12:53
Перевод: Субтитры
Cубтитры: русские
Оригинальная аудиодорожка: Японский
Режиссер: Китамура Рюхэй / Kitamura Ryuhei
В ролях:
Oguri Shun / Огури Сюн - Lupin III / Люпэн Третий
Tamayama Tetsuji / Тамаяма Тецудзи - Jigen Daisuke / Дзигэн Дайскэ
Ayano Gou / Аяно Го - Ishikawa Goemon / Исикава Гоэмон
Kuroki Meisa / Куроки Мэйса - Mine Fujiko / Минэ Фудзико
Asano Tadanobu / Асано Таданобу - Zenigata Koichi / инспектор Интерпола Зенигата Коити
Jerry Yan / Джерри Ян - Michael Lee / Майкл Ли (Джорджио Цзан)
Kim Jun / Ким Чжун - Pierre / Пьер
Nirut Sirichanya / Нирут Сиричанья - Momrachao Pramuk / Момрачао Прамук
Описание:
Легендарная команда аферистов теперь и на большом экране. Тем, кто ещё не знаком с талантливым проходимцем Люпэном Третьим и его шебутной и не очень дружной компашкой, можно лишь искренне позавидовать – им это знакомство только предстоит.
Теперь воровской братии придётся добыть легендарное ожерелье Клеопатры, чтобы украсить им прекрасную шейку Фудзико-тян. Ах, простите! Это Люпэн будет гоняться за камушками для прелестной дамы, а остальная компания будет просто гоняться за камушками. Кто-то ради мести, кто-то ради приключения, кто-то по работе, кто-то просто за печеньку.
Итак, первая миссия на большом экране: украсть у вора Багровое Сердце Клеопатры. © dilasse
Перевод Funsub Kingdom Loli-Pop Stars!
Перевод - dilasse
Координатор и редактор - Морриган
Доп. информация:
IMDB
Кинопоиск
Сэмпл
Качество видео: DVDRip
Формат видео: AVI
Видео: XviD, 688 x 288, 23 кадр/сек, 1398 Кбит/сек
Аудио: AC-3, 48 KHz, 192 Кбит/сек, 2 канала
MediaInfo
ормат : AVI
Формат/Информация : Audio Video Interleave
Профиль формата : OpenDML
Размер файла : 1,49 Гбайт
Продолжительность : 2 ч. 12 м.
Общий поток : 1602 Кбит/сек
Название фильма : Jubowo @ WiKi
Программа кодирования : Lavf55.19.104
Видео
Идентификатор : 0
Формат : xvid
Идентификатор кодека : xvid
Продолжительность : 2 ч. 12 м.
Битрейт : 1398 Кбит/сек
Ширина : 688 пикселей
Высота : 288 пикселей
Соотношение сторон : 2,40:1
Частота кадров : 23,976 кадра/сек
Бит/(Пиксели*Кадры) : 0.294
Размер потока : 1,30 Гбайт (87%)
Аудио
Идентификатор : 1
Формат : AC-3
Формат/Информация : Audio Coding 3
Расширение режима : CM (complete main)
Параметр Endianness формата : Big
Идентификатор кодека : 2000
Продолжительность : 2 ч. 12 м.
Вид битрейта : Постоянный
Битрейт : 192 Кбит/сек
Каналы : 2 канала
Расположение каналов : Front: L R
Частота : 48,0 КГц
Битовая глубина : 16 бит
Метод сжатия : С потерями
Размер потока : 182 Мбайт (12%)
Выравнивание : Соединение по промежуткам
Продолжительность промежутка : 32 мс. (0,77 видеокадр)
Скриншот c названием фильма Скриншоты Пример субтитров
157
00:19:03,920 --> 00:19:06,260
Хранилище, если вам будет угодно.
158
00:19:06,510 --> 00:19:09,180
Это традиция.
159
00:19:35,290 --> 00:19:39,460
Мы открываем эту дверь только по особым случаям.
160
00:19:51,760 --> 00:19:54,100
Только не говори, что снова позволил ей выиграть!
161
00:19:54,390 --> 00:19:56,310
Не в этот раз, дядя.
162
00:19:57,850 --> 00:20:00,230
Я рад, что ты здесь Люпэн.
163
00:20:01,650 --> 00:20:04,690
Хоть мне и хотелось увидеть медаль в твоей руке,
164
00:20:05,190 --> 00:20:07,690
в глубине сердца, я всегда знал...
165
00:20:08,650 --> 00:20:09,780
Люпену Третьему,
166
00:20:09,860 --> 00:20:13,370
столь благородному происхождением, не место на Фабрике.
167
00:20:14,450 --> 00:20:16,660
Твой талант унаследован.
168
00:20:16,910 --> 00:20:18,290
Он не приобретён.
169
00:20:19,540 --> 00:20:22,170
И всё же прошлой ночью
170
00:20:22,170 --> 00:20:24,340
Майкл преподал мне отличный урок.
171
00:20:24,340 --> 00:20:28,380
Всё потому, что твои слабости - его сила,
172
00:20:28,590 --> 00:20:30,970
а его слабости - твоя сила.
173
00:20:31,050 --> 00:20:34,350
Вместе вы будете непобедимы.
174
00:20:35,760 --> 00:20:39,600
Ад скорее замерзнет, чем эти двое объединятся.
175
00:20:55,490 --> 00:20:57,830
Это то, о чём я думаю?
176
00:20:57,950 --> 00:21:00,500
Багровое Сердце Клеопатры.
177
00:21:02,830 --> 00:21:04,830
Тут только половина...
178
00:21:06,250 --> 00:21:08,340
Римлянин Марк Антоний...
179
00:21:08,380 --> 00:21:12,220
заказал это прекрасное ожерелье,
180
00:21:12,300 --> 00:21:15,340
чтобы увековечить свою любовь к Клеопатре,
181
00:21:15,890 --> 00:21:17,260
Царице Египта.
182
00:21:17,970 --> 00:21:21,230
Но после поражения Марка Антония от Октавиана,
183
00:21:22,190 --> 00:21:24,440
он покончил с собой.
184
00:21:25,310 --> 00:21:27,520
Клеопатра была опустошена.
185
00:21:28,440 --> 00:21:31,030
Она приказала самое ценное своё сокровище,
186
00:21:31,360 --> 00:21:34,820
бесценный багровый рубин, вплавить
187
00:21:34,950 --> 00:21:37,450
в сердце этого ожерелья.
188
00:21:37,870 --> 00:21:41,000
Дабы в миг, когда они станут одним целым,
189
00:21:41,120 --> 00:21:43,910
Багровое Сердце Клеопатры
190
00:21:44,420 --> 00:21:49,090
стало символом их единения в посмертии.
191
00:21:50,260 --> 00:21:52,050
Но оно так и не было завершено.
192
00:21:53,550 --> 00:21:55,970
Клеопатра рассталась с жизнью
193
00:21:56,260 --> 00:21:57,760
в приступе отчаяния,
194
00:21:58,930 --> 00:22:02,350
и рубин с ожерельем так и не стали единым целым.
195
00:22:04,480 --> 00:22:05,940
А что с рубином?
196
00:22:10,150 --> 00:22:11,730
Где он сейчас?
197
00:22:13,450 --> 00:22:17,530
Терпение Майкл. История ещё не подошла к концу.
198
00:22:18,950 --> 00:22:21,830
У меня остался один не закрытый счёт,
199
00:22:22,830 --> 00:22:25,500
это и есть причина, по которой вы все здесь.
200
00:22:30,420 --> 00:22:31,380
Эй! Стой!
201
00:22:32,300 --> 00:22:33,300
Какого лешего?
202
00:22:38,850 --> 00:22:40,050
Эт ещё кто?
203
00:23:05,460 --> 00:23:06,460
Выдвигаемся!
204
00:23:06,500 --> 00:23:07,500
Вперёд!
Скачать

Скачать торрент! Люпэн III / Люпэн Третий / Lupin III / Lupin the Third (Китамура Рюхэй / Kitamura Ryuhei) [2014, Япония, экшен, комедия, DVDRip] Sub Rus

Как скачивать? · Что такое торрент? · Рейтинг и ограничения

Сайт не распространяет и не хранит электронные версии произведений, а лишь предоставляет доступ к создаваемому пользователями каталогу ссылок на торрент-файлы, которые содержат только списки хеш-сумм

[Профиль] [ЛС]
Показать сообщения:    
Ответить на тему

Текущее время: Сегодня 16:36

Часовой пояс: GMT + 4



Вы не можете начинать темы
Вы не можете отвечать на сообщения
Вы не можете редактировать свои сообщения
Вы не можете удалять свои сообщения
Вы не можете голосовать в опросах
Вы не можете прикреплять файлы к сообщениям
Вы не можете скачивать файлы