Девочка у моей двери / До Хи / A Girl At My Door / Doheeya (Джули Чон / July Jung) [2014, Южная Корея, драма, DVDRip] Crazy Cats Sub Rus

Ответить на тему
 
Автор Сообщение

user ®

Стаж: 13 лет

Сообщений: 15071

Пост Пост: #1 от 13-Мар-2015 22:30

[Цитировать]

Девочка у моей двери / До Хи / A Girl At My Door / Doheeya- Страна: Южная Корея
Жанр: драма
Год выпуска: 2014
Продолжительность: 1:59:16-Перевод: Субтитры ФСГ Crazy Cats
Cубтитры: русские (отключаемые, SSA/ASS), английские, корейские (отключаемые, в контейнере MKV, idx/sub)
Оригинальная аудиодорожка: корейский-Режиссёр: Джули Чон / July Jung
В ролях: Пэ Ду На / Bae Doo Na, Ким Сэ Рон / Kim Sae Ron, Сон Сэ Бёк / Song Sae Byuk и др.
Описание: После окончания полицейской академии Ён Нам быстро взошла вверх по карьерной лестнице до высшего руководства Сеула, но за нарушение дисциплины её перевели с понижением в должности в небольшой приморский городок. С первого дня на новом месте она постоянно встречает странно одетую девочку-подростка До Хи. Для запуганной девчушки, над которой постоянно издеваются сверстники, обычное дело проводить своё время в одиночестве, бродя по тёмным переулкам. Всё это является всего лишь частью её повседневной жизни. Помимо всего прочего, До Хи постоянно подвергается насилию со стороны своего жестокого отчима, ведь её мать сбежала, бросив дочь. Ён Нам пытается спасти девочку, и в какой-то степени это у неё получается, но только нужна ли подростку эта помощь?-Доп. информация:
Над проектом работали: Svartkatt, Gatta Matta и Pelmenka-Качество видео: DVDRip
Формат видео: MKV
Видео: MPEG-4 AVC, 720x384 (4:2:0), 23.976 fps, ~1875 kbps avg, 0.152 bit/pixel
Аудио: АС3, 48 kHz, 6 channels (L C R, L R, LFE), ~448.00 kbps avg
Сэмпл видео MediaInfo
Общее
Уникальный идентификатор: 191094271697810445644696985632007674303 (0x8FC36B0277218B53BFBF60EB370E59BF)
Полное имя: C:\Users\User\Downloads\[FSG Crazy Cats] Девочка у моей двери\[FSG Crazy Cats] A Girl At My Door (2014).mkv
Формат: Matroska
Размер файла: 1,24 Гбайт
Продолжительность: 1 ч. 59 м.
Общий поток: 1486 Кбит/сек
Дата кодирования: UTC 2015-02-05 07:16:20
Программа кодирования: mkvmerge v6.8.0 ('Theme for Great Cities') 64bit built on Mar 2 2014 21:34:26
Библиотека кодирования: libebml v1.3.0 + libmatroska v1.4.1
Видео
Идентификатор: 1
Формат: AVC
Формат/Информация: Advanced Video Codec
Профиль формата: High@L3.1
Параметр CABAC формата: Да
Параметр ReFrames формата: 16 кадры
Идентификатор кодека: V_MPEG4/ISO/AVC
Продолжительность: 1 ч. 59 м.
Битрейт: 1008 Кбит/сек
Ширина: 720 пикс.
Высота: 384 пикс.
Соотношение сторон: 1,875
Частота кадров: 23,976 кадр/сек
Цветовое пространство: YUV
Подвыборка цветности: 4:2:0
Битовая глубина: 8 бит
Тип развёртки: Прогрессивная
Бит/(Пиксели*Кадры): 0.152
Размер потока: 860 Мбайт (68%)
Заголовок: A.Girl.At.My.Door.2014.DVDRip.x264.AC3-TTSeo
Библиотека кодирования: x264 core 142 r2431 ac76440
Настройки программы: cabac=1 / ref=16 / deblock=1:-1:-1 / analyse=0x3:0x133 / me=umh / subme=11 / psy=1 / psy_rd=1.00:0.15 / mixed_ref=1 / me_range=32 / chroma_me=1 / trellis=2 / 8x8dct=1 / cqm=0 / deadzone=21,11 / fast_pskip=1 / chroma_qp_offset=-3 / threads=6 / lookahead_threads=1 / sliced_threads=0 / nr=0 / decimate=1 / interlaced=0 / bluray_compat=0 / constrained_intra=0 / bframes=8 / b_pyramid=2 / b_adapt=2 / b_bias=0 / direct=3 / weightb=1 / open_gop=0 / weightp=2 / keyint=240 / keyint_min=23 / scenecut=40 / intra_refresh=0 / rc_lookahead=60 / rc=crf / mbtree=1 / crf=16.0 / qcomp=0.60 / qpmin=0 / qpmax=69 / qpstep=4 / vbv_maxrate=17500 / vbv_bufsize=17500 / crf_max=0.0 / nal_hrd=none / filler=0 / ip_ratio=1.40 / aq=1:1.00
Аудио
Идентификатор: 2
Формат: AC-3
Формат/Информация: Audio Coding 3
Расширение режима: CM (complete main)
Идентификатор кодека: A_AC3
Продолжительность: 1 ч. 59 м.
Вид битрейта: Постоянный
Битрейт: 448 Кбит/сек
Канал(ы): 6 канала(ов)
Расположение каналов: Front: L C R, Side: L R, LFE
Частота: 48,0 КГц
Битовая глубина: 16 бит
Метод сжатия: С потерями
Размер потока: 382 Мбайт (30%)
Язык: Korean
Текст #1
Идентификатор: 3
Формат: VobSub
Режим смешивания: zlib
Идентификатор кодека: S_VOBSUB
Идентификатор кодека/Информация: The same subtitle format used on DVDs
Язык: English
Текст #2
Идентификатор: 4
Формат: VobSub
Режим смешивания: zlib
Идентификатор кодека: S_VOBSUB
Идентификатор кодека/Информация: The same subtitle format used on DVDs
Язык: Korean
Скриншот c названием фильма Скриншоты Пример субтитров
Dialogue: 0,0:38:09.00,0:38:11.04,Default,,0,0,0,,А когда приедет твоя мама?
Dialogue: 0,0:38:11.98,0:38:13.81,Default,,0,0,0,,Почему она оставила тебя здесь?
Dialogue: 0,0:38:15.24,0:38:17.18,Default,,0,0,0,,На этот раз она не вернётся.
Dialogue: 0,0:38:19.84,0:38:22.04,Default,,0,0,0,,Я поняла это ещё в тот день, когда она уехала.
Dialogue: 0,0:38:23.33,0:38:25.80,Default,,0,0,0,,Я видела, как она посреди ночи ушла с чемоданом.
Dialogue: 0,0:38:27.45,0:38:30.20,Default,,0,0,0,,Мы встретились с ней взглядом.
Dialogue: 0,0:38:30.93,0:38:32.98,Default,,0,0,0,,Она сказала мне засыпать.
Dialogue: 0,0:38:34.41,0:38:40.31,Default,,0,0,0,,Обычно она говорила мне собираться,\Nкогда я просила её взять меня с собой...
Dialogue: 0,0:38:49.64,0:38:50.79,Default,,0,0,0,,Так что...
Dialogue: 0,0:38:52.24,0:38:54.92,Default,,0,0,0,,Ты думаешь, он избивает тебя из-за твоей мамы?
Dialogue: 0,0:38:57.24,0:38:59.22,Default,,0,0,0,,Она бросила меня...
Dialogue: 0,0:39:06.34,0:39:07.85,Default,,0,0,0,,Хочешь остаться здесь ненадолго?
Dialogue: 0,0:39:09.18,0:39:10.10,Default,,0,0,0,,Серьёзно?
Dialogue: 0,0:39:10.71,0:39:12.38,Default,,0,0,0,,Мне правда можно остаться с вами?
Dialogue: 0,0:39:12.80,0:39:13.51,Default,,0,0,0,,Да.
Dialogue: 0,0:39:14.07,0:39:15.51,Default,,0,0,0,,Пора спать.
Dialogue: 0,0:39:25.22,0:39:26.54,Default,,0,0,0,,А вы куда?
Dialogue: 0,0:39:27.52,0:39:29.17,Default,,0,0,0,,Я посплю в гостиной.
Dialogue: 0,0:39:30.18,0:39:30.97,Default,,0,0,0,,Почему?
Dialogue: 0,0:39:32.25,0:39:33.76,Default,,0,0,0,,Я привыкла спать одна.
Dialogue: 0,0:39:35.22,0:39:36.15,Default,,0,0,0,,Понятно.
Dialogue: 0,0:40:20.65,0:40:22.25,Default,,0,0,0,,Ты чего?
Dialogue: 0,0:40:23.43,0:40:25.92,Default,,0,0,0,,Инспектор, я кушать хочу!
Dialogue: 0,0:40:26.39,0:40:27.68,Default,,0,0,0,,Сейчас...
Dialogue: 0,0:41:20.81,0:41:22.37,Default,,0,0,0,,Я тоже хочу такой носить.
Dialogue: 0,0:41:24.12,0:41:26.76,Default,,0,0,0,,Тебе будет велик даже самый маленький размер.
Dialogue: 0,0:41:26.92,0:41:28.63,Default,,0,0,0,,Но и этот симпатичный, почему бы и не купить?
Dialogue: 0,0:41:28.70,0:41:29.88,Default,,0,0,0,,Мне не нравится.
Dialogue: 0,0:41:48.42,0:41:49.69,Default,,0,0,0,,Очень классно!
Dialogue: 0,0:41:57.08,0:41:58.52,Default,,0,0,0,,Достань свой мобильник.
Dialogue: 0,0:42:04.42,0:42:06.00,Default,,0,0,0,,Нажми и удержи 1.
Dialogue: 0,0:42:11.32,0:42:13.43,Default,,0,0,0,,Полицейский участок - это кнопка 2.
Dialogue: 0,0:42:13.43,0:42:15.45,Default,,0,0,0,,Если вдруг я не отвечу, звони в участок.
Dialogue: 0,0:42:16.29,0:42:21.80,Default,,0,0,0,,Если твой отец попытается снова \Nтебя избить, убегай и звони мне, поняла?
Dialogue: 0,0:42:27.51,0:42:28.87,Default,,0,0,0,,Угум.
Скачать

Скачать торрент! Девочка у моей двери / До Хи / A Girl At My Door / Doheeya (Джули Чон / July Jung) [2014, Южная Корея, драма, DVDRip] Crazy Cats Sub Rus

Как скачивать? · Что такое торрент? · Рейтинг и ограничения

Сайт не распространяет и не хранит электронные версии произведений, а лишь предоставляет доступ к создаваемому пользователями каталогу ссылок на торрент-файлы, которые содержат только списки хеш-сумм

[Профиль] [ЛС]
Показать сообщения:    
Ответить на тему

Текущее время: Сегодня 16:11

Часовой пояс: GMT + 4



Вы не можете начинать темы
Вы не можете отвечать на сообщения
Вы не можете редактировать свои сообщения
Вы не можете удалять свои сообщения
Вы не можете голосовать в опросах
Вы не можете прикреплять файлы к сообщениям
Вы не можете скачивать файлы