Преследование по пятам / Hot Pursuit (Стивен Лисбергер / Steven Lisberger) [1987, США, Мексика, комедия, приключения, WEB-DL 1080p] AVO (П. Санаев) + Sub Eng + Original Eng

Ответить на тему
 
Автор Сообщение

user ®

Стаж: 7 лет 7 месяцев

Сообщений: 20008

Пост Пост: #1 от 13-Мар-2015 16:18

[Цитировать]

Преследование по пятам / Hot Pursuit
Страна: США, Мексика
Студия: Interaccess Film Distribution, RKO Pictures
Жанр: комедия, приключения
Год выпуска: 1987
Продолжительность: 01:32:28
Перевод: Авторский (одноголосый закадровый) П. Санаев
Cубтитры: английские
Оригинальная аудиодорожка: английский
Режиссер: Стивен Лисбергер / Steven Lisberger
В ролях: Джон Кьюсак, Роберт Лоджа, Джерри Стиллер, Венди Газелль, Монте Маркэм, Шелли Фабарес, Бен Стиллер, Да-ве Чодан, Кит Дэвид, Пол Бейтс
Описание: Дэн опаздывает на самолет, на котором должен был отправиться в романтическое путешествие со своей очаровательной подругой Лори. Но неунывающий, всегда готовый к самым пакостным превратностям судьбы Дэн бросается вдогонку. Правда, цепь неудач продолжается и в течение ближайших дней ему предстоит заблудиться в карибских джунглях, поиметь близкие контакты необузданного вида с чувственной островитянкой, пережить кораблекрушение и оказаться в разгар тропического урагана за бортом на милость загадочного незнакомца, только что сбежавшего из тюрьмы, сорвать попытку похищения с целью выкупа, а заодно и сразиться с бандой негодяев, задумавших убить Лори и ее семью. Да, вот это каникулы!

Sample
Тип релиза: WEB-DL 1080p
Контейнер: MKV
Видео: MPEG4 AVC Video, H264, 16:9, 1908x1068, 23.976 fps, 5269 kbps
Аудио: Russian (AC3, 2 ch, 192 kbps, 16 bits, 48.0 KHz) - AVO П. Санаев
Аудио 2: English (AC3, 2 ch, 192 kbps, 16 bits, 48.0 KHz) - оригинал
Формат субтитров: softsub (SRT)

MediaInfo
General
Unique ID : 189610942415597726575411899140017168472 (0x8EA5BD3AC7CAFC03857B2240445F2058)
Complete name : E:\1\Hot Pursuit 1987 WEB-DL 1080p.mkv
Format : Matroska
Format version : Version 4 / Version 2
File size : 3.73 GiB
Duration : 1h 32mn
Overall bit rate : 5 768 Kbps
Encoded date : UTC 2015-03-10 20:25:12
Writing application : mkvmerge v6.1.0 ('Old Devil') built on Mar 2 2013 14:32:37
Writing library : libebml v1.3.0 + libmatroska v1.4.0
Video
ID : 1
Format : AVC
Format/Info : Advanced Video Codec
Format profile : High@L4.0
Format settings, CABAC : Yes
Format settings, ReFrames : 4 frames
Codec ID : V_MPEG4/ISO/AVC
Duration : 1h 32mn
Bit rate : 5 269 Kbps
Width : 1 908 pixels
Height : 1 068 pixels
Display aspect ratio : 16:9
Frame rate mode : Constant
Frame rate : 23.976 fps
Color space : YUV
Chroma subsampling : 4:2:0
Bit depth : 8 bits
Scan type : Progressive
Bits/(Pixel*Frame) : 0.108
Stream size : 3.40 GiB (91%)
Language : English
Default : Yes
Forced : No
Color primaries : BT.709
Transfer characteristics : BT.709
Matrix coefficients : BT.709
Audio #1
ID : 2
Format : AC-3
Format/Info : Audio Coding 3
Mode extension : CM (complete main)
Format settings, Endianness : Big
Codec ID : A_AC3
Duration : 1h 32mn
Bit rate mode : Constant
Bit rate : 192 Kbps
Channel count : 2 channels
Channel positions : Front: L R
Sampling rate : 48.0 KHz
Bit depth : 16 bits
Compression mode : Lossy
Stream size : 127 MiB (3%)
Title : П. Санаев
Language : Russian
Default : Yes
Forced : Yes
Audio #2
ID : 3
Format : AC-3
Format/Info : Audio Coding 3
Mode extension : CM (complete main)
Format settings, Endianness : Big
Codec ID : A_AC3
Duration : 1h 32mn
Bit rate mode : Constant
Bit rate : 192 Kbps
Channel count : 2 channels
Channel positions : Front: L R
Sampling rate : 48.0 KHz
Bit depth : 16 bits
Compression mode : Lossy
Stream size : 127 MiB (3%)
Language : English
Default : No
Forced : No
Text
ID : 4
Format : UTF-8
Codec ID : S_TEXT/UTF8
Codec ID/Info : UTF-8 Plain Text
Language : English
Default : No
Forced : No
Menu
00:00:00.000 : en:Trying to Study
00:08:04.000 : en:Good at Chemistry
00:16:34.000 : en:The Wrong Ride
00:25:41.000 : en:Dan's Friends
00:32:37.000 : en:Crystal Slipper
00:38:03.000 : en:Guns And Knives
00:46:37.000 : en:Sailing Through A Storm
00:54:00.000 : en:Dan Jumps Ship
00:59:44.000 : en:Thrown In Jail
01:06:01.000 : en:Democracy
01:11:36.000 : en:Danger For The Cronenbergs
01:15:36.000 : en:Discovering Smugglers
01:20:46.000 : en:The Boyfriend Saves The Day
01:26:56.000 : en:Reward
Скриншоты
Скачать

Скачать торрент!

Как скачивать? · Что такое торрент? · Рейтинг и ограничения

Сайт не распространяет и не хранит электронные версии произведений, а лишь предоставляет доступ к создаваемому пользователями каталогу ссылок на торрент-файлы, которые содержат только списки хеш-сумм

[Профиль] [ЛС]
Показать сообщения:    
Ответить на тему

Текущее время: Сегодня 23:14

Часовой пояс: GMT + 4



Вы не можете начинать темы
Вы не можете отвечать на сообщения
Вы не можете редактировать свои сообщения
Вы не можете удалять свои сообщения
Вы не можете голосовать в опросах
Вы не можете прикреплять файлы к сообщениям
Вы не можете скачивать файлы