Парень, что надо / Ещё один парень / Just One of the Guys (Лиза Готтлиб / Lisa Gottlieb) [1985, США, мелодрама, комедия, WEB-DL 1080p] MVO (СТС) + VO + Sub Eng + Original Eng

Ответить на тему
 
Автор Сообщение

user ®

Стаж: 7 лет 7 месяцев

Сообщений: 20008

Пост Пост: #1 от 13-Мар-2015 16:18

[Цитировать]

Парень, что надо / Ещё один парень / Just One of the Guys
Страна: США
Студия: Columbia Pictures Corporation и др.
Жанр: мелодрама, комедия
Год выпуска: 1985
Продолжительность: 01:40:20
Перевод: Профессиональный (многоголосый закадровый) СТС
Перевод 2: Одноголосый закадровый
Cубтитры: английские
Оригинальная аудиодорожка: английский
Режиссер: Лиза Готтлиб / Lisa Gottlieb
В ролях: Джойс Хайзер, Клейтон Ронер, Билли Джейкоби, Шерилин Фенн, Тони Хадсон, Уильям Забка, Ли МакКлоски, Дебора Гудрич, Ари Гросс, Роберт Филдстил
Описание: Терри Грифит мечтает стать журналисткой. В школе, где она учится, проводится конкурс на лучшую статью в местную газету. Девушка считает, что ее статья будет признана лучшей, так как написана хорошим слогом и на актуальную тему. Но первое место и главный приз достается не ей, а двум юношам, написавшим довольно посредственные статьи. Терри пробирается в учительскую, чтобы найти причину несправедливости членов жюри. В стопке статей она находит свою работу и видит, что на ней проставлен высший балл. Случайно она слышит разговор между директором школы и одним из преподавателей. Директор школы считает, что Терри не может быть признана победительницей конкурса, так как она слишком красива Он считает, что красивые девушки пригодны лишь для работы в модельном бизнесе и их ограниченный ум естественным образом сужает круг подходящих для них профессий. Терри возмущена до глубины души откровенным проявлением дискриминации по признаку пола. Девушка решает доказать, что мужчины необоснованно возомнили себя высшими существами. Она переодевается юношей, переходит в другую школу и представляет свою статью на рассмотрение местных учителей. Симпатичный новичок сразу становится объектом пристального внимания школьных красавиц...

Sample
Тип релиза: WEB-DL 1080p
Контейнер: MKV
Видео: MPEG4 AVC Video, H264, 16:9, 1912x1072, 23.976 fps, 5134 Kbps
Аудио: Russian (AC3, 2 ch, 256 kbps, 16 bits, 48.0 KHz) - СТС
Аудио 2: Russian (AC3, 2 ch, 192 kbps, 16 bits, 48.0 KHz) - VO
Аудио 3: English (AC3, 2 ch, 192 kbps, 16 bits, 48.0 KHz) - оригинал
Формат субтитров: softsub (SRT)

MediaInfo
General
Unique ID : 242516068963083835931613325259827473012 (0xB672E55B15F3FD94BD33197AD3566A74)
Complete name : E:\1\Just One Of The Guys 1985 WEB-DL 1080p.mkv
Format : Matroska
Format version : Version 4 / Version 2
File size : 4.13 GiB
Duration : 1h 40mn
Overall bit rate : 5 891 Kbps
Encoded date : UTC 2015-03-10 20:15:38
Writing application : mkvmerge v6.1.0 ('Old Devil') built on Mar 2 2013 14:32:37
Writing library : libebml v1.3.0 + libmatroska v1.4.0
Video
ID : 1
Format : AVC
Format/Info : Advanced Video Codec
Format profile : High@L4.0
Format settings, CABAC : Yes
Format settings, ReFrames : 4 frames
Codec ID : V_MPEG4/ISO/AVC
Duration : 1h 40mn
Bit rate : 5 134 Kbps
Width : 1 912 pixels
Height : 1 072 pixels
Display aspect ratio : 16:9
Frame rate mode : Constant
Frame rate : 23.976 fps
Color space : YUV
Chroma subsampling : 4:2:0
Bit depth : 8 bits
Scan type : Progressive
Bits/(Pixel*Frame) : 0.104
Stream size : 3.60 GiB (87%)
Language : English
Default : Yes
Forced : No
Color primaries : BT.709
Transfer characteristics : BT.709
Matrix coefficients : BT.709
Audio #1
ID : 2
Format : AC-3
Format/Info : Audio Coding 3
Mode extension : CM (complete main)
Format settings, Endianness : Big
Codec ID : A_AC3
Duration : 1h 40mn
Bit rate mode : Constant
Bit rate : 256 Kbps
Channel count : 2 channels
Channel positions : Front: L R
Sampling rate : 48.0 KHz
Bit depth : 16 bits
Compression mode : Lossy
Stream size : 184 MiB (4%)
Title : MVO
Language : Russian
Default : Yes
Forced : Yes
Audio #2
ID : 3
Format : AC-3
Format/Info : Audio Coding 3
Mode extension : CM (complete main)
Format settings, Endianness : Big
Codec ID : A_AC3
Duration : 1h 40mn
Bit rate mode : Constant
Bit rate : 192 Kbps
Channel count : 2 channels
Channel positions : Front: L R
Sampling rate : 48.0 KHz
Bit depth : 16 bits
Compression mode : Lossy
Stream size : 138 MiB (3%)
Title : VO
Language : Russian
Default : No
Forced : No
Audio #3
ID : 4
Format : AC-3
Format/Info : Audio Coding 3
Mode extension : CM (complete main)
Format settings, Endianness : Big
Codec ID : A_AC3
Duration : 1h 40mn
Bit rate mode : Constant
Bit rate : 192 Kbps
Channel count : 2 channels
Channel positions : Front: L R
Sampling rate : 48.0 KHz
Bit depth : 16 bits
Compression mode : Lossy
Stream size : 138 MiB (3%)
Language : English
Default : No
Forced : No
Text
ID : 5
Format : UTF-8
Codec ID : S_TEXT/UTF8
Codec ID/Info : UTF-8 Plain Text
Language : English
Default : No
Forced : No
Menu
00:00:00.000 : en:Chapter 1
00:02:44.000 : en:Chapter 2
00:05:18.000 : en:Chapter 3
00:07:37.000 : en:Chapter 4
00:10:09.000 : en:Chapter 5
00:14:38.000 : en:Chapter 6
00:17:46.000 : en:Chapter 7
00:21:29.000 : en:Chapter 8
00:24:03.000 : en:Chapter 9
00:30:03.000 : en:Chapter 10
00:33:32.000 : en:Chapter 11
00:37:12.000 : en:Chapter 12
00:38:41.000 : en:Chapter 13
00:43:02.000 : en:Chapter 14
00:48:40.000 : en:Chapter 15
00:50:34.000 : en:Chapter 16
00:55:16.000 : en:Chapter 17
00:58:31.000 : en:Chapter 18
01:00:32.000 : en:Chapter 19
01:02:39.000 : en:Chapter 20
01:05:59.000 : en:Chapter 21
01:07:50.000 : en:Chapter 22
01:10:47.000 : en:Chapter 23
01:16:14.000 : en:Chapter 24
01:18:12.000 : en:Chapter 25
01:23:59.000 : en:Chapter 26
01:27:14.000 : en:Chapter 27
01:34:37.000 : en:Chapter 28
Скриншоты
Скачать

Скачать торрент!

Как скачивать? · Что такое торрент? · Рейтинг и ограничения

Сайт не распространяет и не хранит электронные версии произведений, а лишь предоставляет доступ к создаваемому пользователями каталогу ссылок на торрент-файлы, которые содержат только списки хеш-сумм

[Профиль] [ЛС]
Показать сообщения:    
Ответить на тему

Текущее время: Сегодня 04:26

Часовой пояс: GMT + 4



Вы не можете начинать темы
Вы не можете отвечать на сообщения
Вы не можете редактировать свои сообщения
Вы не можете удалять свои сообщения
Вы не можете голосовать в опросах
Вы не можете прикреплять файлы к сообщениям
Вы не можете скачивать файлы