Ловелас / Герой-любовник / Loverboy (Джоан Миклин Сильвер / Joan Micklin Silver) [1989, США, комедия, WEB-DL 720p] MVO (Петербург 5 канал) + AVO (Л. Володарский) + Sub Eng + Original Eng

Ответить на тему
 
Автор Сообщение

user ®

Стаж: 7 лет 7 месяцев

Сообщений: 20008

Пост Пост: #1 от 13-Мар-2015 16:18

[Цитировать]

Ловелас / Герой-любовник / Loverboy
Страна: США
Студия: Crescent Film Enterprises
Жанр: комедия
Год выпуска: 1989
Продолжительность: 01:38:43
Перевод: Профессиональный (многоголосый закадровый) Петербург 5 канал
Перевод 2: Авторский (одноголосый закадровый) Л. Володарский
Cубтитры: английские
Оригинальная аудиодорожка: английский
Режиссер: Джоан Миклин Сильвер / Joan Micklin Silver
В ролях: Патрик Демпси, Кейт Джексон, Роберт Джинти, Нэнси Вэлин, Дилан Уолш, Барбара Каррера, Берни Колсон, Рэй Жирардин, Роб Камиллетти, Вик Тэйбэк, Ким Мийори, Роберт Пикардо, Кирсти Элли, Питер Кох, Кэрри Фишер
Описание: Рэнди отвратительно учится в колледже, постоянно торчит на вечеринках, никак не может разобраться в отношениях со своей девушкой Дженни и найти общий язык с родителями. Отец решил, что Рэнди пора браться за ум и устроил его в пиццерию. Теперь Рэнди разъезжает в смешном фургончике и развозит пиццу. Среди клиенток попадаются и состоятельные, не слишком молодые, но весьма любвеобильные особы. Рэнди сам не заметил, как очутился в водовороте адюльтеров и амурных похождений...

Sample
Тип релиза: WEB-DL 720p
Контейнер: MKV
Видео: MPEG4 AVC Video, H264, 16:9, 1280x716, 23.976 fps, 4045 kbps
Аудио: Russian (AC3, 2 ch, 192 kbps, 16 bits, 48.0 KHz) - Петербург 5 канал
Аудио 2: Russian (AC3, 2 ch, 192 kbps, 16 bits, 48.0 KHz) - Л. Володарский
Аудио 3: English (AC3, 2 ch, 192 kbps, 16 bits, 48.0 KHz) - оригинал
Формат субтитров: softsub (SRT)

MediaInfo
General
Unique ID : 251300437043562972405003556724467085279 (0xBD0EB423FA59FC8FA5A6A9813520AFDF)
Complete name : E:\1\Loverboy 1989 WEB-DL 720p.mkv
Format : Matroska
Format version : Version 4 / Version 2
File size : 3.25 GiB
Duration : 1h 38mn
Overall bit rate : 4 714 Kbps
Encoded date : UTC 2015-03-10 17:00:01
Writing application : mkvmerge v6.1.0 ('Old Devil') built on Mar 2 2013 14:32:37
Writing library : libebml v1.3.0 + libmatroska v1.4.0
Video
ID : 1
Format : AVC
Format/Info : Advanced Video Codec
Format profile : High@L3.1
Format settings, CABAC : No
Format settings, ReFrames : 2 frames
Codec ID : V_MPEG4/ISO/AVC
Duration : 1h 38mn
Bit rate : 4 045 Kbps
Width : 1 280 pixels
Height : 716 pixels
Display aspect ratio : 16:9
Frame rate mode : Constant
Frame rate : 23.976 fps
Color space : YUV
Chroma subsampling : 4:2:0
Bit depth : 8 bits
Scan type : Progressive
Bits/(Pixel*Frame) : 0.184
Stream size : 2.79 GiB (86%)
Language : English
Default : Yes
Forced : No
Color primaries : BT.709
Transfer characteristics : BT.709
Matrix coefficients : BT.709
Audio #1
ID : 2
Format : AC-3
Format/Info : Audio Coding 3
Mode extension : CM (complete main)
Format settings, Endianness : Big
Codec ID : A_AC3
Duration : 1h 38mn
Bit rate mode : Constant
Bit rate : 192 Kbps
Channel count : 2 channels
Channel positions : Front: L R
Sampling rate : 48.0 KHz
Bit depth : 16 bits
Compression mode : Lossy
Stream size : 136 MiB (4%)
Title : MVO
Language : Russian
Default : Yes
Forced : Yes
Audio #2
ID : 3
Format : AC-3
Format/Info : Audio Coding 3
Mode extension : CM (complete main)
Format settings, Endianness : Big
Codec ID : A_AC3
Duration : 1h 38mn
Bit rate mode : Constant
Bit rate : 192 Kbps
Channel count : 2 channels
Channel positions : Front: L R
Sampling rate : 48.0 KHz
Bit depth : 16 bits
Compression mode : Lossy
Stream size : 136 MiB (4%)
Title : Л. Володарский
Language : Russian
Default : No
Forced : No
Audio #3
ID : 4
Format : AC-3
Format/Info : Audio Coding 3
Mode extension : CM (complete main)
Format settings, Endianness : Big
Codec ID : A_AC3
Duration : 1h 38mn
Bit rate mode : Constant
Bit rate : 192 Kbps
Channel count : 2 channels
Channel positions : Front: L R
Sampling rate : 48.0 KHz
Bit depth : 16 bits
Compression mode : Lossy
Stream size : 136 MiB (4%)
Language : English
Default : No
Forced : No
Text
ID : 5
Format : UTF-8
Codec ID : S_TEXT/UTF8
Codec ID/Info : UTF-8 Plain Text
Language : English
Default : No
Forced : No
Menu
00:00:00.000 : en:Start
00:03:17.000 : en:Randy Bodek
00:15:02.000 : en:Alex Barnett
00:29:53.000 : en:Kyoko Bruckner
00:41:25.000 : en:Dr. Joyce Palmer
00:48:23.000 : en:LoverBoy
00:55:05.000 : en:Monica Delancy
01:00:53.000 : en:Harry Comes Home
01:10:50.000 : en:Close Call At The Wilshire Motel
01:17:24.000 : en:Not The Regular Delivery Boy
01:27:45.000 : en:Melee At Tiki Joe's
01:33:02.000 : en:All's Well That Ends Well
Скриншоты
Скачать

Скачать торрент!

Как скачивать? · Что такое торрент? · Рейтинг и ограничения

Сайт не распространяет и не хранит электронные версии произведений, а лишь предоставляет доступ к создаваемому пользователями каталогу ссылок на торрент-файлы, которые содержат только списки хеш-сумм

[Профиль] [ЛС]
Показать сообщения:    
Ответить на тему

Текущее время: Сегодня 02:15

Часовой пояс: GMT + 4



Вы не можете начинать темы
Вы не можете отвечать на сообщения
Вы не можете редактировать свои сообщения
Вы не можете удалять свои сообщения
Вы не можете голосовать в опросах
Вы не можете прикреплять файлы к сообщениям
Вы не можете скачивать файлы