Яблоко от яблони / Каков отец, таков и сын / Like Father Like Son (Род Дэниэл / Rod Daniel) [1987, США, комедия, WEB-DL 1080p] AVO (А. Михалев) + Sub Eng + Original Eng

Ответить на тему
 
Автор Сообщение

user ®

Стаж: 7 лет 7 месяцев

Сообщений: 20008

Пост Пост: #1 от 13-Мар-2015 16:18

[Цитировать]

Яблоко от яблони / Каков отец, таков и сын / Like Father Like Son
Страна: США
Студия: Imagine Films Entertainment
Жанр: комедия
Год выпуска: 1987
Продолжительность: 01:39:33
Перевод: Авторский (одноголосый закадровый) А. Михалев
Cубтитры: английские
Оригинальная аудиодорожка: английский
Режиссер: Род Дэниэл / Rod Daniel
В ролях: Дадли Мур, Кирк Кэмерон, Маргарет Колин, Кэтрин Хикс, Патрик О’Нил, Шон Эстин, Камилль Купер, Мика Грант, Билл Моррисон, Скитер Вон
Описание: Известный кардио-хирург доктор Джек Хаммонд с головой поглощен работой и практически не имеет возможности полноценно общаться со своим сыном-подростком Крисом. Но однажды происходит странное событие: Джек по ошибке добавляет в свой бокал сыворотку, составленную по рецепту древних индейцев. В результате приема этого чудодейственного снадобья происходит невероятное: мозги Джека прямиком переселяются в голову Криса. Что из этого получится — смотрите сами.

Sample
Тип релиза: WEB-DL 1080p
Контейнер: MKV
Видео: MPEG4 AVC Video, H264, 16:9, 1912x1072, 23.976 fps, 4868 kbps
Аудио: Russian (AC3, 2 ch, 192 kbps, 16 bits, 48.0 KHz) - А. Михалев
Аудио 2: English (AC3, 2 ch, 192 kbps, 16 bits, 48.0 KHz) - оригинал
Формат субтитров: softsub (SRT)

MediaInfo
General
Unique ID : 221097618289627576328220344966474517689 (0xA655DA34E60DA233B672BBD379E24CB9)
Complete name : E:\1\Like Father Like Son 1987 WEB-DL 1080p.mkv
Format : Matroska
Format version : Version 4 / Version 2
File size : 3.73 GiB
Duration : 1h 39mn
Overall bit rate : 5 359 Kbps
Encoded date : UTC 2015-03-10 20:21:34
Writing application : mkvmerge v6.1.0 ('Old Devil') built on Mar 2 2013 14:32:37
Writing library : libebml v1.3.0 + libmatroska v1.4.0
Video
ID : 1
Format : AVC
Format/Info : Advanced Video Codec
Format profile : High@L4.0
Format settings, CABAC : Yes
Format settings, ReFrames : 4 frames
Codec ID : V_MPEG4/ISO/AVC
Duration : 1h 39mn
Bit rate : 4 868 Kbps
Width : 1 912 pixels
Height : 1 072 pixels
Display aspect ratio : 16:9
Frame rate mode : Constant
Frame rate : 23.976 fps
Color space : YUV
Chroma subsampling : 4:2:0
Bit depth : 8 bits
Scan type : Progressive
Bits/(Pixel*Frame) : 0.099
Stream size : 3.39 GiB (91%)
Language : English
Default : Yes
Forced : No
Color primaries : BT.709
Transfer characteristics : BT.709
Matrix coefficients : BT.709
Audio #1
ID : 2
Format : AC-3
Format/Info : Audio Coding 3
Mode extension : CM (complete main)
Format settings, Endianness : Big
Codec ID : A_AC3
Duration : 1h 39mn
Bit rate mode : Constant
Bit rate : 192 Kbps
Channel count : 2 channels
Channel positions : Front: L R
Sampling rate : 48.0 KHz
Bit depth : 16 bits
Compression mode : Lossy
Stream size : 137 MiB (4%)
Title : А. Михалев
Language : Russian
Default : Yes
Forced : Yes
Audio #2
ID : 3
Format : AC-3
Format/Info : Audio Coding 3
Mode extension : CM (complete main)
Format settings, Endianness : Big
Codec ID : A_AC3
Duration : 1h 39mn
Bit rate mode : Constant
Bit rate : 192 Kbps
Channel count : 2 channels
Channel positions : Front: L R
Sampling rate : 48.0 KHz
Bit depth : 16 bits
Compression mode : Lossy
Stream size : 137 MiB (4%)
Language : English
Default : No
Forced : No
Text
ID : 4
Format : UTF-8
Codec ID : S_TEXT/UTF8
Codec ID/Info : UTF-8 Plain Text
Language : English
Default : No
Forced : No
Menu
00:00:00.000 : en:1
00:05:35.000 : en:2
00:17:57.000 : en:3
00:24:43.000 : en:4
00:39:09.000 : en:5
00:47:54.000 : en:6
00:54:40.000 : en:7
01:00:32.000 : en:8
01:09:59.000 : en:9
01:17:56.000 : en:10
01:26:04.000 : en:11
01:31:58.000 : en:12
Скриншоты
Скачать

Скачать торрент!

Как скачивать? · Что такое торрент? · Рейтинг и ограничения

Сайт не распространяет и не хранит электронные версии произведений, а лишь предоставляет доступ к создаваемому пользователями каталогу ссылок на торрент-файлы, которые содержат только списки хеш-сумм

[Профиль] [ЛС]
Показать сообщения:    
Ответить на тему

Текущее время: Сегодня 13:40

Часовой пояс: GMT + 4



Вы не можете начинать темы
Вы не можете отвечать на сообщения
Вы не можете редактировать свои сообщения
Вы не можете удалять свои сообщения
Вы не можете голосовать в опросах
Вы не можете прикреплять файлы к сообщениям
Вы не можете скачивать файлы