Поймай толстуху, если сможешь / Identity Thief (Сет Гордон / Seth Gordon) [2013, США, комедия, криминал, BDRip 1080p] [Unrated Cut] VO (Есарев) + Original Eng + Sub Eng, Fre, Spa

Ответить на тему
 
Автор Сообщение

user ®

Стаж: 7 лет 7 месяцев

Сообщений: 20008

Пост Пост: #1 от 13-Мар-2015 16:18

[Цитировать]

Поймай толстуху, если сможешь / Identity Thief / Unrated Cut- Страна: США
Жанр: комедия, криминал
Год выпуска: 2013
Продолжительность: 02:00:30
Перевод: Одноголосый закадровый
Русские субтитры: нет
Оригинальная аудиодорожка: английский-Режиссер: Сет Гордон / Seth Gordon
В ролях: Джейсон Бейтман, Мелисса МакКарти, Аманда Пит, Роберт Патрик, Генезис Родригез, Ти-Ай, Джон Фавро, Моррис Честнат, Джон Чо, Эрик Стоунстрит.
Описание: Молодому финансисту из Колорадо Сэнди Паторсону пришлось столкнуться с настоящим мошенничеством. Как-то он попытался снять наличные со своего банковского счета, но у него ничего не вышло. Расплатиться кредитной картой он тоже не может и тогда Сэнди обращается в банк. Ему сообщают, что его личным счетом уже кто-то пользуется, совершая постоянные покупки от его имени. Молодой человек отправляется в полицию, где ему показывают фотографию профессиональной мошенницы Дианны. Парень приходит в бешенство и решает самостоятельно поймать женщину, которая тратит его деньги. Он отправляется во Флориду, но поймать мошенницу оказывается не так просто, как ему казалось...-Sample
Качество: BDRip 1080p | Контейнер: MKV | Рип: EbP
Видео: 1920x816 (2.35:1), 23.976 fps, x264@L4.1 ~13500 kbps avg
Аудио 1: Russian 48 kHz, DTS, 3/2 (L,C,R,l,r) + LFE ch, 1509.00 kbps avg | Есарев
Аудио 2: English 48 kHz, DTS, 3/2 (L,C,R,l,r) + LFE ch, 1509.00 kbps avg | Original
Субтитры: английские полные, английские полные sdh, французские полные, испанские полные

Инфо
Format : Matroska
File size : 14.2 GiB
Duration : 2h 0mn
Overall bit rate : 16.9 Mbps
Movie name : BLUEBIRD
Encoded date : UTC 2014-02-08 12:45:14
Writing application : mkvmerge v5.8.0 ('No Sleep / Pillow') built on Sep 2 2012 15:37:04
Writing library : libebml v1.2.3 + libmatroska v1.3.0
Video
ID : 1
Format : AVC
Format/Info : Advanced Video Codec
Format profile : High@L4.1
Format settings, CABAC : Yes
Format settings, ReFrames : 5 frames
Format settings, GOP : N=15
Codec ID : V_MPEG4/ISO/AVC
Duration : 2h 0mn
Bit rate : 13.5 Mbps
Width : 1 920 pixels
Height : 816 pixels
Display aspect ratio : 2.35:1
Frame rate : 23.976 fps
Color space : YUV
Chroma subsampling : 4:2:0
Bit depth : 8 bits
Scan type : Progressive
Bits/(Pixel*Frame) : 0.359
Stream size : 11.4 GiB (80%)
Title : Identity.Thief.2013.UNRATED.1080p.BluRay.x264-EbP
Writing library : x264 core 132 r2310 76a5c3a
Encoding settings : cabac=1 / ref=5 / deblock=1:-3:-3 / analyse=0x3:0x133 / me=umh / subme=10 / psy=1 / psy_rd=1.10:0.00 / mixed_ref=1 / me_range=32 / chroma_me=1 / trellis=2 / 8x8dct=1 / cqm=0 / deadzone=21,11 / fast_pskip=0 / chroma_qp_offset=-2 / threads=18 / lookahead_threads=3 / sliced_threads=0 / nr=0 / decimate=0 / interlaced=0 / bluray_compat=0 / constrained_intra=0 / bframes=9 / b_pyramid=2 / b_adapt=2 / b_bias=0 / direct=3 / weightb=1 / open_gop=0 / weightp=2 / keyint=240 / keyint_min=23 / scenecut=40 / intra_refresh=0 / rc_lookahead=60 / rc=crf / mbtree=0 / crf=16.5 / qcomp=0.60 / qpmin=0 / qpmax=69 / qpstep=4 / vbv_maxrate=62500 / vbv_bufsize=78125 / crf_max=0.0 / nal_hrd=none / ip_ratio=1.40 / pb_ratio=1.30 / aq=2:0.80
Language : English
Audio #1
ID : 2
Format : DTS
Format/Info : Digital Theater Systems
Codec ID : A_DTS
Duration : 2h 0mn
Bit rate mode : Constant
Bit rate : 1 510 Kbps
Channel(s) : 6 channels
Channel positions : Front: L C R, Side: L R, LFE
Sampling rate : 48.0 KHz
Bit depth : 24 bits
Stream size : 1.27 GiB (9%)
Title : AVO Д.Есарев
Language : Russian
Audio #2
ID : 3
Format : DTS
Format/Info : Digital Theater Systems
Codec ID : A_DTS
Duration : 2h 0mn
Bit rate mode : Constant
Bit rate : 1 510 Kbps
Channel(s) : 6 channels
Channel positions : Front: L C R, Side: L R, LFE
Sampling rate : 48.0 KHz
Bit depth : 24 bits
Stream size : 1.27 GiB (9%)
Language : English
Text #1
ID : 4
Format : UTF-8
Codec ID : S_TEXT/UTF8
Codec ID/Info : UTF-8 Plain Text
Title : English
Language : English
Text #2
ID : 5
Format : UTF-8
Codec ID : S_TEXT/UTF8
Codec ID/Info : UTF-8 Plain Text
Title : English (SDH)
Language : English
Text #3
ID : 6
Format : UTF-8
Codec ID : S_TEXT/UTF8
Codec ID/Info : UTF-8 Plain Text
Title : French
Language : French
Text #4
ID : 7
Format : UTF-8
Codec ID : S_TEXT/UTF8
Codec ID/Info : UTF-8 Plain Text
Title : Spanish
Language : Spanish
Menu
00:00:00.000 : en:Chapter 1
00:06:30.973 : en:Chapter 2
00:13:20.424 : en:Chapter 3
00:17:48.400 : en:Chapter 4
00:26:24.332 : en:Chapter 5
00:30:23.613 : en:Chapter 6
00:36:55.671 : en:Chapter 7
00:44:45.015 : en:Chapter 8
00:49:15.410 : en:Chapter 9
00:56:44.526 : en:Chapter 10
01:01:19.926 : en:Chapter 11
01:07:52.568 : en:Chapter 12
01:12:19.126 : en:Chapter 13
01:16:05.185 : en:Chapter 14
01:21:31.886 : en:Chapter 15
01:28:43.901 : en:Chapter 16
01:36:07.261 : en:Chapter 17
01:43:08.348 : en:Chapter 18
01:49:59.300 : en:Chapter 19
01:56:28.481 : en:Chapter 20
02:00:30.514 : en:Chapter 21
Скриншоты
Скачать

Скачать торрент!

Как скачивать? · Что такое торрент? · Рейтинг и ограничения

Сайт не распространяет и не хранит электронные версии произведений, а лишь предоставляет доступ к создаваемому пользователями каталогу ссылок на торрент-файлы, которые содержат только списки хеш-сумм

[Профиль] [ЛС]
Показать сообщения:    
Ответить на тему

Текущее время: Сегодня 02:24

Часовой пояс: GMT + 4



Вы не можете начинать темы
Вы не можете отвечать на сообщения
Вы не можете редактировать свои сообщения
Вы не можете удалять свои сообщения
Вы не можете голосовать в опросах
Вы не можете прикреплять файлы к сообщениям
Вы не можете скачивать файлы