Две женщины (Вера Глаголева) [2014, Драма, WEB-DLRip]

Ответить на тему
 
Автор Сообщение

user ®

Стаж: 7 лет 7 месяцев

Сообщений: 20008

Пост Пост: #1 от 12-Мар-2015 23:57

[Цитировать]

Две женщины
Жанр: Драма
Год выпуска: 2014
Продолжительность: 01:39:29--Режиссёр: Вера Глаголева--В ролях: Анна Астраханцева, Рэйф Файнс, Александр Балуев, Сильви Тестю, Никита Волков, Анна Леванова, Лариса Малеванная, Бернд Мосс, Сергей Юшкевич, Василий Мищенко, Андрей Занога, Роман Дробот, Анна Нахапетова...--Описание: Середина XIX века. В поместье Аркадия Ислаева приезжает студент Алексей, нанятый обучать юного сынишку помещика. Молодым человеком, впервые попавшим в пышное общество, увлекается супруга Ислаева Наталья Петровна, а следом за ней чувствами к студенту воспылала и ее воспитанница, семнадцатилетняя Верочка. Отношения между двумя женщинами, прежде нежные и почти семейные, приобретают сопернический оттенок, страсть к юному красавцу обнажает ревность. Давно влюбленный в Наталью Петровну друг семьи Ислаева Михаил Ракитин ощущает угрозу со стороны молодого учителя и пытается воспользоваться вспышкой чувств своей пассии. Любовный многоугольник переживает несколько удивительно эмоциональных дней.--Доп. информация: Kinopoisk | Sample |--Качество видео: WEB-DLRip
Формат видео: AVI
Видео: XviD (build 73), 624x352 (1.77:1), 25.000 fps, 912 kbps avg, 0.166 bit/pixel
Аудио: MPEG Layer, 48 kHz, 128.00 kbps avg, 3, 2 ch
MediaInfo
General
Complete name : Две женщины.avi
Format : AVI
Format/Info : Audio Video Interleave
File size : 748 MiB
Duration : 1h 39mn
Overall bit rate : 1 051 Kbps
Writing application : VirtualDubMod 1.5.10.3 | www.virtualdub-fr.org || (build 2550/release)
Writing library : VirtualDubMod build 2550/release
Video
ID : 0
Format : MPEG-4 Visual
Format profile : Advanced Simple@L5
Format settings, BVOP : 1
Format settings, QPel : No
Format settings, GMC : No warppoints
Format settings, Matrix : Custom
Codec ID : XVID
Codec ID/Hint : XviD
Duration : 1h 39mn
Bit rate : 913 Kbps
Width : 624 pixels
Height : 352 pixels
Display aspect ratio : 16:9
Frame rate : 25.000 fps
Color space : YUV
Chroma subsampling : 4:2:0
Bit depth : 8 bits
Scan type : Progressive
Compression mode : Lossy
Bits/(Pixel*Frame) : 0.166
Stream size : 650 MiB (87%)
Writing library : XviD 73
Audio
ID : 1
Format : MPEG Audio
Format version : Version 1
Format profile : Layer 3
Codec ID : 55
Codec ID/Hint : MP3
Duration : 1h 39mn
Bit rate mode : Constant
Bit rate : 128 Kbps
Channel(s) : 2 channels
Sampling rate : 48.0 KHz
Compression mode : Lossy
Stream size : 91.1 MiB (12%)
Alignment : Aligned on interleaves
Interleave, duration : 40 ms (1.00 video frame)
Interleave, preload duratio : 504 ms
Writing library : LAME3.99r
Encoding settings : -m s -V 4 -q 2 -lowpass 17 -b 128
Скриншоты
Скачать

Скачать торрент!

Как скачивать? · Что такое торрент? · Рейтинг и ограничения

Сайт не распространяет и не хранит электронные версии произведений, а лишь предоставляет доступ к создаваемому пользователями каталогу ссылок на торрент-файлы, которые содержат только списки хеш-сумм

[Профиль] [ЛС]
Показать сообщения:    
Ответить на тему

Текущее время: Сегодня 09:59

Часовой пояс: GMT + 4



Вы не можете начинать темы
Вы не можете отвечать на сообщения
Вы не можете редактировать свои сообщения
Вы не можете удалять свои сообщения
Вы не можете голосовать в опросах
Вы не можете прикреплять файлы к сообщениям
Вы не можете скачивать файлы