Чужой против Хищника / AVP: Alien vs. Predator (Пол У. С. Андерсон / Paul W.S. Anderson) [2004, США, Великобритания, Чехия, фантастика, боевик, приключения, BDRip 1080p] [Theatrical Cut] Dub (CEE) + Original Eng + Sub Rus, Eng

Ответить на тему
 
Автор Сообщение

user ®

Стаж: 7 лет 7 месяцев

Сообщений: 20008

Пост Пост: #1 от 12-Мар-2015 20:51

[Цитировать]

Чужой против Хищника / AVP: Alien vs. Predator [Theatrical Cut]- Год выпуска: 2004
Выпущено: США, Великобритания, Чехия
Жанр: фантастика, боевик, приключения
Продолжительность: 01:40:47
Перевод: Профессиональный (полное дублирование) Blu-Ray CEE
Оригинальная звуковая дорожка: English
Субтитры: Russian, English-Режиссер: Пол У. С. Андерсон / Paul W.S. Anderson
В ролях: Санаа Лэтэн, Рауль Бова, Лэнс Хенриксен, Юэн Бремнер, Колин Сэлмон, Томми Флэнаган, Джозеф Рай, Агат Де Ла Булае, Карстен Норгаард, Сэм Тротон
О фильме: Наши дни. Группа ученых отправляется в Антарктиду, чтобы отыскать колыбель цивилизации, царившей на Земле многие тысячелетия назад. Под толщей льда они находят пирамиды, в которых обнаруживают человеческие скелеты и следы жизнедеятельности чужих.
Однако они еще не знают, что уже находятся под колпаком у хозяев этого города - хищников, и их дни сочтены. Человеческая приманка поможет хищникам, наконец, завершить войну двух космических цивилизаций…-SbR!
Релиз:
Формат: MKV
Видео: 1920x814 at 23.976 fps, x264@L4.1, crf, ~14929 kbps
Аудио #01: Russian: 48 kHz, DTS, 3/2 (L,C,R,l,r) + LFE ch, 768 kbps |Дубляж, Blu-Ray CEE|
Аудио #02: English: 48 kHz, DTS, 3/2 (L,C,R,l,r) + LFE ch, 1509 kbps
Семпл-Source vs Encode
-
mInfo
Формат : Matroska
Версия формата : Version 4 / Version 2
Размер файла : 12,1 Гбайт
Продолжительность : 1 ч. 40 м.
Общий поток : 17,2 Мбит/сек
Название фильма : AVP: Alien vs. Predator (2004) - Release for HDCLUB by SbR
Дата кодирования : UTC 2015-03-06 02:58:56
Программа кодирования : mkvmerge v7.7.0 ('Six Voices') 64bit built on Feb 28 2015 23:39:33
Библиотека кодирования : libebml v1.3.1 + libmatroska v1.4.2
Attachements : cover.jpg / xlog.txt
Видео
Идентификатор : 1
Формат : AVC
Формат/Информация : Advanced Video Codec
Профиль формата : High@L4.1
Параметр CABAC формата : Да
Параметр ReFrames формата : 5 кадров
Идентификатор кодека : V_MPEG4/ISO/AVC
Продолжительность : 1 ч. 40 м.
Битрейт : 14,6 Мбит/сек
Ширина : 1920 пикселей
Высота : 814 пикселей
Соотношение сторон : 2,35:1
Режим частоты кадров : Постоянный
Частота кадров : 23,976 кадра/сек
Цветовое пространство : YUV
Субдискретизация насыщенности : 4:2:0
Битовая глубина : 8 бит
Тип развёртки : Прогрессивная
Бит/(Пиксели*Кадры) : 0.389
Размер потока : 10,3 Гбайт (85%)
Заголовок : Release for HDCLUB
Библиотека кодирования : x264 core 144 r2525kMod 40bb568
Настройки программы : cabac=1 / ref=5 / deblock=1:-2:-2 / analyse=0x3:0x133 / me=umh / subme=11 / psy=1 / fade_compensate=0.00 / psy_rd=1.00:0.00 / mixed_ref=1 / me_range=32 / chroma_me=1 / trellis=2 / 8x8dct=1 / cqm=0 / deadzone=21,11 / fast_pskip=1 / chroma_qp_offset=-2 / threads=12 / lookahead_threads=2 / sliced_threads=0 / nr=0 / decimate=1 / interlaced=0 / bluray_compat=0 / constrained_intra=0 / fgo=0 / bframes=8 / b_pyramid=2 / b_adapt=2 / b_bias=0 / direct=1 / weightb=1 / open_gop=0 / weightp=2 / keyint=250 / keyint_min=23 / scenecut=40 / intra_refresh=0 / rc_lookahead=60 / rc=crf / mbtree=0 / crf=17.0000 / qcomp=0.70 / qpmin=0 / qpmax=69 / qpstep=4 / vbv_maxrate=62500 / vbv_bufsize=78125 / crf_max=0.0 / nal_hrd=none / filler=0 / ip_ratio=1.40 / pb_ratio=1.30 / aq=1:0.80
Язык : English
Default : Да
Forced : Нет
Основные цвета : BT.709
Характеристики трансфера : BT.709
Коэффициенты матрицы : BT.709
colour_range : Limited
Аудио #1
Идентификатор : 2
Формат : DTS
Формат/Информация : Digital Theater Systems
Режим : 16
Параметр Endianness формата : Big
Идентификатор кодека : A_DTS
Продолжительность : 1 ч. 40 м.
Вид битрейта : Постоянный
Битрейт : 768 Кбит/сек
Каналы : 6 каналов
Расположение каналов : Front: L C R, Side: L R, LFE
Частота : 48,0 КГц
Битовая глубина : 24 бит
Метод сжатия : С потерями
Размер потока : 554 Мбайт (4%)
Заголовок : Dub, Blu-ray CEE
Язык : Russian
Default : Да
Forced : Нет
Аудио #2
Идентификатор : 3
Формат : DTS
Формат/Информация : Digital Theater Systems
Режим : 16
Параметр Endianness формата : Big
Идентификатор кодека : A_DTS
Продолжительность : 1 ч. 40 м.
Вид битрейта : Постоянный
Битрейт : 1509 Кбит/сек
Каналы : 6 каналов
Расположение каналов : Front: L C R, Side: L R, LFE
Частота : 48,0 КГц
Битовая глубина : 24 бит
Метод сжатия : С потерями
Размер потока : 1,06 Гбайт (9%)
Язык : English
Default : Нет
Forced : Нет
Текст #1
Идентификатор : 4
Формат : UTF-8
Идентификатор кодека : S_TEXT/UTF8
Идентификатор кодека/Информация : UTF-8 Plain Text
Язык : Russian
Default : Нет
Forced : Нет
Текст #2
Идентификатор : 5
Формат : UTF-8
Идентификатор кодека : S_TEXT/UTF8
Идентификатор кодека/Информация : UTF-8 Plain Text
Язык : English
Default : Нет
Forced : Нет
Меню
00:00:00.000 : en:Killers in the Cold
00:02:22.100 : en:Something in Sector 14
00:06:37.605 : en:Weyland's Offer
00:09:59.932 : en:Below the Ice
00:12:41.886 : en:The Better Chance
00:16:06.715 : en:Three Simple Rules
00:20:22.387 : en:Razorback Point
00:23:21.983 : en:The Tunnel
00:25:44.167 : en:Going Down
00:27:39.699 : en:The Pyramid
00:30:36.084 : en:Awakening
00:32:48.091 : en:First Blood
00:36:53.586 : en:Chosen Ones
00:39:47.676 : en:The Sarcophagus
00:44:31.710 : en:The Spawning
00:48:12.889 : en:Prey
00:51:18.158 : en:Death Maze
00:56:42.106 : en:Battle Zone
00:58:28.838 : en:Weyland's Last Stand
01:04:27.488 : en:Rite of Passage
01:06:04.835 : en:Gods and Monsters
01:08:09.543 : en:The Enemy of My Enemy
01:13:55.013 : en:Alone
01:16:51.356 : en:Two Warriors
01:20:27.947 : en:Allies
01:21:47.694 : en:The Nest
01:25:22.992 : en:The Fire Down Below
01:28:42.024 : en:Blood of the Kill
-
Скачать

Скачать торрент!

Как скачивать? · Что такое торрент? · Рейтинг и ограничения

Сайт не распространяет и не хранит электронные версии произведений, а лишь предоставляет доступ к создаваемому пользователями каталогу ссылок на торрент-файлы, которые содержат только списки хеш-сумм

[Профиль] [ЛС]
Показать сообщения:    
Ответить на тему

Текущее время: Сегодня 14:48

Часовой пояс: GMT + 4



Вы не можете начинать темы
Вы не можете отвечать на сообщения
Вы не можете редактировать свои сообщения
Вы не можете удалять свои сообщения
Вы не можете голосовать в опросах
Вы не можете прикреплять файлы к сообщениям
Вы не можете скачивать файлы