Мужчина по вызову 2 / Deuce Bigalow: European Gigolo (Майк Бигелоу / Mike Bigelow) [2005, США, комедия, WEB-DL 720p] Dub (R5) + Ukr (HTH) + Original Eng + Sub Eng

Ответить на тему
 
Автор Сообщение

user ®

Стаж: 7 лет 7 месяцев

Сообщений: 20008

Пост Пост: #1 от 12-Мар-2015 20:51

[Цитировать]

Мужчина по вызову 2 / Deuce Bigalow: European Gigolo- Год выпуска: 2005
Выпущено: США
Жанр: комедия
Продолжительность: 01:23:04
Перевод: Профессиональный (полное дублирование)
Оригинальная звуковая дорожка: English
Субтитры: English-Режиссер: Майк Бигелоу / Mike Bigelow
В ролях: Роб Шнайдер, Эдди Гриффин, Ерун Краббе, Тиль Швайгер, Дуглас Силлс, Карлос Понсе, Чарльз Китинг, Ханна Вербум, Алекс Димитриадес, Костас Соммер
О фильме: Дьюс отправляется по приглашению своего бывшего сутенера на отдых в Амстердам и в итоге понимает, что его вновь хотят вернуть в бизнес эскорт услуг для женщин. Не то, чтобы Дьюс был против - платят неплохо, но, во-первых, у него уже есть постоянная подружка, а во-вторых, у европейских женщин слишком бурная сексуальная фантазия…-Релиз:
Формат: MKV
Видео: 1280x718 at 23.976 fps, MPEG-4 AVC, ~4000 kbps avg
Аудио #01: Russian: 48 kHz, AC3, 3/2 (L,C,R,l,r) + LFE ch, ~448.00 kbps avg |Дубляж, R5|
Аудио #02: Ukrainian: 48 kHz, AC3, 2/0 (L,R) ch, ~192.00 kbps avg |Многоголосый закадровый, НТН|
Аудио #03: English: 48 kHz, AC3, 3/2 (L,C,R,l,r) + LFE ch, ~384.00 kbps avg |Оригинал, US iTunes|
Семпл-

Скриншоты
-
mInfo
Формат : Matroska
Версия формата : Version 4 / Version 2
Размер файла : 2,90 Гбайт
Продолжительность : 1 ч. 23 м.
Общий поток : 4991 Кбит/сек
Название фильма : Release by spartanec163
Дата кодирования : UTC 2015-03-10 16:34:37
Программа кодирования : mkvmerge v7.4.0 ('Circles') 64bit built on Dec 12 2014 12:19:56
Библиотека кодирования : libebml v1.3.0 + libmatroska v1.4.1
DURATION : 01:23:03.968000000
NUMBER_OF_FRAMES : 155749
NUMBER_OF_BYTES : 119615232
_STATISTICS_WRITING_APP : mkvmerge v7.4.0 ('Circles') 64bit built on Dec 12 2014 12:19:56
_STATISTICS_WRITING_DATE_UTC : 2015-03-10 16:34:37
_STATISTICS_TAGS : BPS DURATION NUMBER_OF_FRAMES NUMBER_OF_BYTES
Видео
Идентификатор : 1
Формат : AVC
Формат/Информация : Advanced Video Codec
Профиль формата : High@L3.1
Параметр CABAC формата : Нет
Параметр ReFrames формата : 2 кадра
Идентификатор кодека : V_MPEG4/ISO/AVC
Продолжительность : 1 ч. 23 м.
Битрейт : 3868 Кбит/сек
Ширина : 1280 пикселей
Высота : 718 пикселей
Соотношение сторон : 16:9
Режим частоты кадров : Постоянный
Частота кадров : 23,976 кадра/сек
Цветовое пространство : YUV
Субдискретизация насыщенности : 4:2:0
Битовая глубина : 8 бит
Тип развёртки : Прогрессивная
Бит/(Пиксели*Кадры) : 0.176
Размер потока : 2,24 Гбайт (77%)
Заголовок : WEB-DL 720p (Rus iTunes)
Язык : English
Default : Да
Forced : Нет
Основные цвета : BT.709
Характеристики трансфера : BT.709
Коэффициенты матрицы : BT.709
colour_range : Limited
Аудио #1
Идентификатор : 2
Формат : AC-3
Формат/Информация : Audio Coding 3
Расширение режима : CM (complete main)
Параметр Endianness формата : Big
Идентификатор кодека : A_AC3
Продолжительность : 1 ч. 23 м.
Вид битрейта : Постоянный
Битрейт : 448 Кбит/сек
Каналы : 6 каналов
Расположение каналов : Front: L C R, Side: L R, LFE
Частота : 48,0 КГц
Битовая глубина : 16 бит
Метод сжатия : С потерями
Размер потока : 266 Мбайт (9%)
Заголовок : AC3 5.1 448Kbps (Дубляж, R5)
Язык : Russian
Default : Да
Forced : Нет
Аудио #2
Идентификатор : 3
Формат : AC-3
Формат/Информация : Audio Coding 3
Расширение режима : CM (complete main)
Параметр Endianness формата : Big
Идентификатор кодека : A_AC3
Продолжительность : 1 ч. 23 м.
Вид битрейта : Постоянный
Битрейт : 192 Кбит/сек
Каналы : 2 канала
Расположение каналов : Front: L R
Частота : 48,0 КГц
Битовая глубина : 16 бит
Метод сжатия : С потерями
Размер потока : 114 Мбайт (4%)
Заголовок : AC3 2.0 192Kbps (Профессиональный, многоголосый - НТН)
Язык : Ukrainian
Default : Нет
Forced : Нет
Аудио #3
Идентификатор : 4
Формат : AC-3
Формат/Информация : Audio Coding 3
Расширение режима : CM (complete main)
Параметр Endianness формата : Big
Идентификатор кодека : A_AC3
Продолжительность : 1 ч. 23 м.
Вид битрейта : Постоянный
Битрейт : 384 Кбит/сек
Каналы : 6 каналов
Расположение каналов : Front: L C R, Side: L R, LFE
Частота : 48,0 КГц
Битовая глубина : 16 бит
Метод сжатия : С потерями
Размер потока : 228 Мбайт (8%)
Заголовок : AC3 5.1 384Kbps (Оригинал, US iTunes)
Язык : English
Default : Нет
Forced : Нет
Текст
Идентификатор : 5
Формат : UTF-8
Идентификатор кодека : S_TEXT/UTF8
Идентификатор кодека/Информация : UTF-8 Plain Text
Язык : English
Default : Нет
Forced : Нет
Меню
00:00:00.000 : en:Start
00:02:46.000 : en:Little Bastards
00:05:46.000 : en:Amsterdam
00:07:29.000 : en:Red Light Girls
00:12:53.000 : en:Coffee Shop
00:15:40.000 : en:Dead Prostidude
00:20:08.000 : en:Interrogation Room
00:22:42.000 : en:First Man-Whore to Bite
00:24:00.000 : en:Man-Whore Union
00:28:16.000 : en:Man-Whore Wisdom
00:29:58.000 : en:Baby Talk
00:32:52.000 : en:"Pot" Zone
00:35:04.000 : en:Afternoon with Eva
00:38:30.000 : en:The Competition
00:40:08.000 : en:Fun with a Blowhole
00:45:41.000 : en:Dinner with Dick Nose
00:48:20.000 : en:Making a Porn
00:52:18.000 : en:Ladies Man
00:54:40.000 : en:A Tanner T.J.
00:55:08.000 : en:T.J.'s Graceland
00:59:07.000 : en:Eva Under Suspicion
01:02:13.000 : en:Deuce Visits Gaspar
01:05:11.000 : en:"The Golden Boner"
01:07:21.000 : en:Hard Criminals
01:09:59.000 : en:Man-Whore of the Year
01:12:01.000 : en:Gigolo Swordfight
01:14:46.000 : en:First Kiss
01:15:56.000 : en:T.J.'s New Business

-
Цитата:
* Исходная вебка куплена в русском iTunes на личные средства.
* Сохранены и подписаны главы.
* За украинскую дорожку спасибо hurtom.
Скачать

Скачать торрент!

Как скачивать? · Что такое торрент? · Рейтинг и ограничения

Сайт не распространяет и не хранит электронные версии произведений, а лишь предоставляет доступ к создаваемому пользователями каталогу ссылок на торрент-файлы, которые содержат только списки хеш-сумм

[Профиль] [ЛС]
Показать сообщения:    
Ответить на тему

Текущее время: Сегодня 18:14

Часовой пояс: GMT + 4



Вы не можете начинать темы
Вы не можете отвечать на сообщения
Вы не можете редактировать свои сообщения
Вы не можете удалять свои сообщения
Вы не можете голосовать в опросах
Вы не можете прикреплять файлы к сообщениям
Вы не можете скачивать файлы