День расплаты гангстера / Da cha fan (По-Чунг Ли / Po-Cheung Lee) [2014, Гонконг, Китай, Драма, комедия, криминал, HDRip] VO (den904)

Ответить на тему
 
Автор Сообщение

user ®

Стаж: 13 лет

Сообщений: 15071

Пост Пост: #1 от 12-Мар-2015 14:39

[Цитировать]

День расплаты гангстера / Da cha fan
Страна: Гонконг, Китай
Жанр: Драма, комедия, криминал
Год выпуска: 2014
Продолжительность: 01:36:54
Перевод: Одноголосый закадровый den904 (Перевод: Skyworker)
Cубтитры: нет
Режиссер: По-Чунг Ли / Po-Cheung Lee
В ролях: Энтони Вонг Чау Санг, Чарлин Чой, Ю-Нам Вонг, Уай-Ман Чан, Чи Хунг ЭнДжи, Филип Кеунг, Дип Нг, Вэй Аи, Танг Чо «Джо» Чунг, Кэрри ЭнДжи
Описание: Стареющий гангстер хочеть отойти отдел и решает инвестировать чайну. Однако чайная стоит на пути проекта, который собралась развивать конкурирующая банда и гангстер вынужден призвать старых друзей, чтобы спасти не только чайную, но и девушку своей мечты.

Качество видео: HDRip
Формат видео: AVI
Видео: Xvid 720x304 24fps 1947kbps
Аудио: Dolby AC3 48000Hz stereo 192kbps
MediaInfo
Format : AVI
Format/Info : Audio Video Interleave
Format profile : OpenDML
Format settings : rec
File size : 1.45 GiB
Duration : 1h 36mn
Overall bit rate : 2 145 Kbps
Writing application : AVI-Mux GUI 1.17.8.3, Feb 16 201019:42:50
Video
ID : 0
Format : MPEG-4 Visual
Format profile : Advanced Simple@L5
Format settings, BVOP : No
Format settings, QPel : No
Format settings, GMC : 3 warppoints
Format settings, Matrix : Default (MPEG)
Codec ID : XVID
Codec ID/Hint : XviD
Duration : 1h 36mn
Bit rate : 1 947 Kbps
Width : 720 pixels
Height : 304 pixels
Display aspect ratio : 2.35:1
Frame rate : 24.000 fps
Color space : YUV
Chroma subsampling : 4:2:0
Bit depth : 8 bits
Scan type : Progressive
Compression mode : Lossy
Bits/(Pixel*Frame) : 0.371
Stream size : 1.32 GiB (91%)
Writing library : XviD 62
Audio
ID : 1
Format : AC-3
Format/Info : Audio Coding 3
Mode extension : CM (complete main)
Format settings, Endianness : Big
Codec ID : 2000
Duration : 1h 36mn
Bit rate mode : Constant
Bit rate : 192 Kbps
Channel(s) : 2 channels
Channel positions : Front: L R
Sampling rate : 48.0 KHz
Bit depth : 16 bits
Compression mode : Lossy
Stream size : 133 MiB (9%)
Alignment : Aligned on interleaves
Interleave, duration : 64 ms (1.54 video frames)
Interleave, preload duration : 192 ms
Title : rus_133
Скриншот c названием фильма Скриншоты
Скачать

Скачать торрент! День расплаты гангстера / Da cha fan (По-Чунг Ли / Po-Cheung Lee) [2014, Гонконг, Китай, Драма, комедия, криминал, HDRip] VO (den904)

Как скачивать? · Что такое торрент? · Рейтинг и ограничения

Сайт не распространяет и не хранит электронные версии произведений, а лишь предоставляет доступ к создаваемому пользователями каталогу ссылок на торрент-файлы, которые содержат только списки хеш-сумм

[Профиль] [ЛС]
Показать сообщения:    
Ответить на тему

Текущее время: Сегодня 11:43

Часовой пояс: GMT + 4



Вы не можете начинать темы
Вы не можете отвечать на сообщения
Вы не можете редактировать свои сообщения
Вы не можете удалять свои сообщения
Вы не можете голосовать в опросах
Вы не можете прикреплять файлы к сообщениям
Вы не можете скачивать файлы