Стоять на своем / Nimirnthu nil (П. Самутиракани / P. Samuthirakani) [2014, Индия, Драма, DVDRip] + Sub Rus

Ответить на тему
 
Автор Сообщение

user ®

Стаж: 12 лет

Сообщений: 15092

Пост Пост: #1 от 11-Мар-2015 19:03

[Цитировать]

Стоять на своем / Nimirnthu nil Страна: Индия
Жанр: Драма
Год выпуска: 2014
Продолжительность: 02:24:38
Перевод: Субтитры
Cубтитры: русские
Оригинальная аудиодорожка: Тамильский
Режиссер: П. Самутиракани / P. Samuthirakani
В ролях: Джаям Рави, Амала Пол, Сури, Саратх Кумар, Рагини Двиведи, Гопинат и др.
Описание: Злободневная сатира на индийское общество. Любовь, воздержание от греха, добродетель, истина. Это то, чему учили Аравинда Сивасами в закрытом учебном заведении. Выйдя в мир после окончания учебы, Аравинд сталкивается с настоящей жизнью, где повсюду царят коррупция, безразличие к чужой боли, лицемерие. Сполна ощутив на себе все прелести нынешней системы, Аравинд решает бороться.
Друзья его предостерегают, враги угрожают. Но он упрямый. Он будет до конца СТОЯТЬ НА СВОЕМ!(с) Марк1979
Перевод субтитров: Марк 1979
Сэмпл:
Качество видео: DVDRip
Формат видео: AVI
Видео: XviD, 720x304, 23.976 fps, 993
Аудио: AC3, 48 kHz, 5.1 (6 ch), 448 kbps
Формат субтитров: hardsub (неотключаемые)
MediaInfo
C:\Users\алла\Videos\бимуви\Stoyat.na.svoem.2014.DVDrip.avi
General
Complete name : C:\Users\алла\Videos\бимуви\Stoyat.na.svoem.2014.DVDrip.avi
Format : AVI
Format/Info : Audio Video Interleave
File size : 1.47 GiB
Duration : 2h 24mn
Overall bit rate : 1 450 Kbps
Writing application : VirtualDubMod 1.5.10.3 | www.virtualdub-fr.org || (build 2550/release)
Writing library : VirtualDubMod build 2550/release
Video #0
ID : 0
Format : MPEG-4 Visual
Format profile : Advanced Simple@L5
Format settings, BVOP : 1
Format settings, QPel : No
Format settings, GMC : No warppoints
Format settings, Matrix : Default (MPEG)
Codec ID : DX50
Codec ID/Hint : DivX 5
Duration : 2h 24mn
Bit rate : 993 Kbps
Width : 720 pixels
Height : 304 pixels
Display aspect ratio : 2.35:1
Frame rate : 23.976 fps
Color space : YUV
Chroma subsampling : 4:2:0
Bit depth : 8 bits
Scan type : Progressive
Compression mode : Lossy
Bits/(Pixel*Frame) : 0.189
Stream size : 1.00 GiB (68%)
Writing library : XviD 1.2.1 (UTC 2008-12-04)
Audio #1
ID : 1
Format : AC-3
Format/Info : Audio Coding 3
Mode extension : CM (complete main)
Codec ID : 2000
Duration : 2h 24mn
Bit rate mode : Constant
Bit rate : 448 Kbps
Channel(s) : 6 channels
Channel positions : Front: L C R, Side: L R, LFE
Sampling rate : 48.0 KHz
Bit depth : 16 bits
Compression mode : Lossy
Stream size : 463 MiB (31%)
Alignment : Split accross interleaves
Interleave, duration : 42 ms (1.00 video frame)
Interleave, preload duration : 500 ms
Скриншот c названием фильма Скриншоты
Скачать

Скачать торрент! Стоять на своем / Nimirnthu nil (П. Самутиракани / P. Samuthirakani) [2014, Индия, Драма, DVDRip] + Sub Rus

Как скачивать? · Что такое торрент? · Рейтинг и ограничения

Сайт не распространяет и не хранит электронные версии произведений, а лишь предоставляет доступ к создаваемому пользователями каталогу ссылок на торрент-файлы, которые содержат только списки хеш-сумм

[Профиль] [ЛС]
Показать сообщения:    
Ответить на тему

Текущее время: Сегодня 05:46

Часовой пояс: GMT + 4



Вы не можете начинать темы
Вы не можете отвечать на сообщения
Вы не можете редактировать свои сообщения
Вы не можете удалять свои сообщения
Вы не можете голосовать в опросах
Вы не можете прикреплять файлы к сообщениям
Вы не можете скачивать файлы