Встреча в Кируне / Rendez-vous à Kiruna (Энн Новион / Anne Novion) [2012, Франция, драма, HDTV 1080i] MVO (1 канал)

Ответить на тему
 
Автор Сообщение

user ®

Стаж: 7 лет 7 месяцев

Сообщений: 20008

Пост Пост: #1 от 11-Мар-2015 19:03

[Цитировать]

Встреча в Кируне / Rendez-vous à Kiruna
Страна: Франция
Жанр: драма
Год выпуска: 2012
Продолжительность: 01:31:18
Перевод: Профессиональный (многоголосый закадровый) 1 канал
Cубтитры: нет
Оригинальная аудиодорожка: нет
Режиссер: Энн Новион / Anne Novion
В ролях: Жан-Пьер Дарруссен
Анастасиос Соулис
Клаэс Юнгмарк
Ким Бодния
Жюдит Анри
Лиа Бойсен
Торд Петерсон
Даг Малмберг
Элизабет Фальк
Описание: Известный архитектор Эрнест Туссант не просто живет своей работой, он прячется за ней от окружающего мира. У Эрнеста есть подруга и компаньон Виктория, к которой он относится не слишком внимательно. Однажды в доме властного и надменного Туссана раздается звонок из полиции Швеции, который вынуждает его отправиться в Кируну — маленький городок в шведской Лапландии, чтобы опознать тело сына. Сына, которого он никогда не знал и знать не хотел. По дороге на север Эрнест подвозит Магнуса — молодого человека примерно такого же возраста, как и его погибший сын. Эта встреча переворачивает жизнь архитектора с ног на голову.
Сэмпл: https://yadi.sk/i/SPnsalYLf9iMm
Тип релиза: HDTV 1080i
Контейнер: TS
Видео: AVC, 1920x1080 (16/9), 25.000 fps, 12.0 Mbps (0.232 bit/pixel)
Аудио: MP2, 48.0 KHz, 2 ch, 192 Kbps, CBR (Russian)
MediaInfo
Общее
Идентификатор : 3 (0x3)
Полное имя : K:\Встреча в Кируне.ts
Формат : MPEG-TS
Размер файла : 8,13 Гбайт
Продолжительность : 1 ч. 28 м.
Режим общего битрейта : Переменный
Общий поток : 13,2 Мбит/сек
Видео
Идентификатор : 2141 (0x85D)
Идентификатор меню : 21004 (0x520C)
Формат : AVC
Формат/Информация : Advanced Video Codec
Профиль формата : Main@L4.0
Параметр CABAC формата : Да
Параметр ReFrames формата : 3 кадра
Параметр GOP формата : M=4, N=28
Идентификатор кодека : 27
Продолжительность : 1 ч. 31 м.
Битрейт : 12,3 Мбит/сек
Ширина : 1920 пикселей
Высота : 1080 пикселей
Соотношение сторон : 16:9
Частота кадров : 25,000 кадров/сек
Стандарт вещания : Component
Цветовое пространство : YUV
Субдискретизация насыщенности : 4:2:0
Битовая глубина : 8 бит
Тип развёртки : Чересстрочная
Порядок развёртки : Верхнее поле первое
Бит/(Пиксели*Кадры) : 0.237
Размер потока : 7,85 Гбайт (97%)
Основные цвета : BT.709
Характеристики трансфера : BT.709
Коэффициенты матрицы : BT.709
Аудио
Идентификатор : 2142 (0x85E)
Идентификатор меню : 21004 (0x520C)
Формат : MPEG Audio
Версия формата : Version 1
Профиль формата : Layer 2
Идентификатор кодека : 4
Продолжительность : 1 ч. 31 м.
Вид битрейта : Постоянный
Битрейт : 192 Кбит/сек
Каналы : 2 канала
Частота : 48,0 КГц
Метод сжатия : С потерями
Задержка видео : -8 мс.
Размер потока : 125 Мбайт (2%)
Язык : Russian
Скриншоты
Скачать

Скачать торрент!

Как скачивать? · Что такое торрент? · Рейтинг и ограничения

Сайт не распространяет и не хранит электронные версии произведений, а лишь предоставляет доступ к создаваемому пользователями каталогу ссылок на торрент-файлы, которые содержат только списки хеш-сумм

[Профиль] [ЛС]
Показать сообщения:    
Ответить на тему

Текущее время: Сегодня 22:34

Часовой пояс: GMT + 4



Вы не можете начинать темы
Вы не можете отвечать на сообщения
Вы не можете редактировать свои сообщения
Вы не можете удалять свои сообщения
Вы не можете голосовать в опросах
Вы не можете прикреплять файлы к сообщениям
Вы не можете скачивать файлы