Крутые чуваки на Байю / Bad Asses on the Bayou (Крэйг Мосс / Craig Moss) [2015, США, боевик, комедия, WEB-DLRip] DVO

Ответить на тему
 
Автор Сообщение

user ®

Стаж: 7 лет 7 месяцев

Сообщений: 20008

Пост Пост: #1 от 11-Мар-2015 09:51

[Цитировать]

Крутые чуваки на Байю / Bad Asses on the Bayou
Страна: США
Жанр: боевик, комедия
Год выпуска: 2015
Продолжительность: 01:25:12
Перевод: Любительский (двухголосый закадровый)
Cубтитры: нет
Режиссер: Крэйг Мосс/ Craig Moss
В ролях: Дэнни Трехо, Дэнни Гловер, Джон Эймос, Лони Лав, Джимми Беннетт, Жаклин Флеминг, Майлз Долеак, Джудд Лорманд, Ольга Вильхельмин, Патрик Кернс
Описание: Фрэнк Вега и Бени Поуп возвращаются — на этот раз они отправляются в Луизиану, где им предстоит найти похищенного друга.
Сэмпл: http://multi-up.com/847356
Качество видео: WEB-DLRip
Формат видео: AVI
Видео: Xvid 720x384 23.976fps 1902kbps
Аудио: Dolby AC3 48000Hz 6ch 384kbps
MediaInfo
General
Complete name : D:\µTorrent\Bad.Ass.3.Bad.Asses.on.the.Bayou.2015.WEB-DLRip.avi
Format : AVI
Format/Info : Audio Video Interleave
File size : 1.37 GiB
Duration : 1h 25mn
Overall bit rate : 2 294 Kbps
Writing application : VirtualDubMod 1.5.10.3 | www.virtualdub-fr.org || (build 2550/release)
Writing library : VirtualDubMod build 2550/release
Video
ID : 0
Format : MPEG-4 Visual
Format profile : Advanced Simple@L5
Format settings, BVOP : 1
Format settings, QPel : No
Format settings, GMC : No warppoints
Format settings, Matrix : Custom
Codec ID : XVID
Codec ID/Hint : XviD
Duration : 1h 25mn
Bit rate : 1 903 Kbps
Width : 720 pixels
Height : 384 pixels
Display aspect ratio : 1.875
Frame rate : 23.976 fps
Color space : YUV
Chroma subsampling : 4:2:0
Bit depth : 8 bits
Scan type : Progressive
Compression mode : Lossy
Bits/(Pixel*Frame) : 0.287
Stream size : 1.13 GiB (83%)
Writing library : XviD 73
Audio
ID : 1
Format : AC-3
Format/Info : Audio Coding 3
Mode extension : CM (complete main)
Codec ID : 2000
Duration : 1h 24mn
Bit rate mode : Constant
Bit rate : 384 Kbps
Channel(s) : 6 channels
Channel positions : Front: L C R, Side: L R, LFE
Sampling rate : 48.0 KHz
Bit depth : 16 bits
Compression mode : Lossy
Stream size : 233 MiB (17%)
Alignment : Split accross interleaves
Interleave, duration : 42 ms (1.01 video frame)
Interleave, preload duration : 500 ms
Скриншот c названием фильма Скриншоты
Скачать

Скачать торрент!

Как скачивать? · Что такое торрент? · Рейтинг и ограничения

Сайт не распространяет и не хранит электронные версии произведений, а лишь предоставляет доступ к создаваемому пользователями каталогу ссылок на торрент-файлы, которые содержат только списки хеш-сумм

[Профиль] [ЛС]
Показать сообщения:    
Ответить на тему

Текущее время: Сегодня 00:37

Часовой пояс: GMT + 4



Вы не можете начинать темы
Вы не можете отвечать на сообщения
Вы не можете редактировать свои сообщения
Вы не можете удалять свои сообщения
Вы не можете голосовать в опросах
Вы не можете прикреплять файлы к сообщениям
Вы не можете скачивать файлы