Самая обаятельная и привлекательная (Геральд Бежанов) [1985, СССР, комедия, мелодрама, HDTV 1080i]

Ответить на тему
 
Автор Сообщение

user ®

Стаж: 7 лет 7 месяцев

Сообщений: 20008

Пост Пост: #1 от 11-Мар-2015 00:33

[Цитировать]

Самая обаятельная и привлекательная-HDTV 1080i Страна: СССР
Студия: Мосфильм
Жанр: комедия, мелодрама
Год выпуска: 1985
Продолжительность: 01:18:20
Перевод: Не требуется
Cубтитры: нет
Оригинальная аудиодорожка: русский
Режиссер: Геральд Бежанов
В ролях: Ирина Муравьёва, Татьяна Васильева, Александр Абдулов, Леонид Куравлёв, Михаил Кокшенов, Александр Ширвиндт, Лариса Удовиченко, Людмила Иванова, Лидия Соколова
Описание: Как непросто в наши дни устроить личную жизнь! Даже если план действия разработан подругой-социологом. Забавные ситуации,связанные с поиском будущего супруга и завоеванием его сердца,составляют сюжет этого остроумного фильма,в героях которого многие узнают себя...-SAMPLE-Тип релиза: HDTV 1080i
Контейнер: TS-Видео: MPEG4 (H264) / 1920x1080 (16:9) / 11100kbps / 25.00fps / 0.214 bit/pixel
Аудио: Russian / MPEG Audio Layer-2 / 192 Kbps / 48 kHz / stereo / 16 bits

MediaInfo
General
ID : 1
Complete name : E:\temp\Самая обаятельная и привлекательная.ts
Format : MPEG-TS
File size : 6.50 GiB
Duration : 1h 18mn
Overall bit rate : 11.9 Mbps
Video
ID : 1603 (0x643)
Menu ID : 603 (0x25B)
Format : AVC
Format/Info : Advanced Video Codec
Format profile : High@L4.0
Format settings, CABAC : Yes
Format settings, ReFrames : 3 frames
Format settings, GOP : M=1, N=63
Codec ID : 27
Duration : 1h 18mn
Bit rate : 11.1 Mbps
Width : 1 920 pixels
Height : 1 080 pixels
Display aspect ratio : 16:9
Frame rate : 25.000 fps
Standard : Component
Color space : YUV
Chroma subsampling : 4:2:0
Bit depth : 8 bits
Scan type : Interlaced
Scan order : Top Field First
Bits/(Pixel*Frame) : 0.214
Stream size : 6.07 GiB (93%)
Color primaries : BT.709-5, BT.1361, IEC 61966-2-4, SMPTE RP177
Transfer characteristics : BT.709-5, BT.1361
Matrix coefficients : BT.709-5, BT.1361, IEC 61966-2-4 709, SMPTE RP177
Audio
ID : 2603 (0xA2B)
Menu ID : 603 (0x25B)
Format : MPEG Audio
Format version : Version 1
Format profile : Layer 2
Codec ID : 3
Duration : 1h 18mn
Bit rate mode : Constant
Bit rate : 192 Kbps
Channel(s) : 2 channels
Sampling rate : 48.0 KHz
Stream size : 108 MiB (2%)
Language : Russian
Скриншоты
Скачать

Скачать торрент!

Как скачивать? · Что такое торрент? · Рейтинг и ограничения

Сайт не распространяет и не хранит электронные версии произведений, а лишь предоставляет доступ к создаваемому пользователями каталогу ссылок на торрент-файлы, которые содержат только списки хеш-сумм

[Профиль] [ЛС]
Показать сообщения:    
Ответить на тему

Текущее время: Сегодня 06:28

Часовой пояс: GMT + 4



Вы не можете начинать темы
Вы не можете отвечать на сообщения
Вы не можете редактировать свои сообщения
Вы не можете удалять свои сообщения
Вы не можете голосовать в опросах
Вы не можете прикреплять файлы к сообщениям
Вы не можете скачивать файлы