Левиафан / Leviathan (Джордж П. Косматос / George P. Cosmatos) [1989 г., США, Италия, ужасы, фантастика, триллер, приключения, BDRip 720p] MVO + AVO (Гаврилов) + Original Eng + Sub (Eng)

Ответить на тему
 
Автор Сообщение

user ®

Стаж: 7 лет 7 месяцев

Сообщений: 20008

Пост Пост: #1 от 11-Мар-2015 00:33

[Цитировать]

-Левиафан / Leviathan«Aliens thrilled you... The Fly shocked you... Now experience real fear...» Страна: США, Италия
Студия: Filmauro Distribuzione, Gordon Company, Metro-Goldwyn-Mayer (MGM)
Жанр: Ужасы, фантастика, триллер, приключения
Год выпуска: 1989
Продолжительность: 01:38:00-Перевод 1: Профессиональный (многоголосый, закадровый)
Перевод 2: Авторский (одноголосый, закадровый) А. Гаврилов
Оригинальная аудиодорожка: английская
Cубтитры: английские
Режиссер: Джордж П. Косматос / George P. Cosmatos
В ролях: Питер Уэллер, Ричард Кренна, Аманда Пейс, Дэниел Стерн, Эрни Хадсон, Лиза Айлбахер, Майкл Кармине, Гектор Элисондо, Мег Фостер, Юджин Липински
Описание: Во время вахтенных работ по добыче руды на пятикилометровой глубине в Атлантике один из техников находит затонувшее русское судно. Вскоре выясняется, что на судне велись секретные эксперименты.
В сейфе, принесенном из корабля на подводную базу шахтеров, находятся записи о таинственной болезни, поразившей весь экипаж корабля. Вскоре один из шахтеров умирает и мутирует в жуткое чудовище, которое начинает уничтожать все живое на своем пути…-
Сэмпл: скачать-Релиз от -
Автор рипа: Elheym
Качество: BDRip 720p (источник: / Blu-ray Remux US [LEVIATHAN.1989.US.BD-REMUX.1080p] / 1080p)
Контейнер: MKV
Видео: 1280x546 (2.35:1), 23.976 fps, MPEG-4 AVC, ~5400 kbps avg, 0.322 bit/pixel
Аудио #1: Русский: DTS, 5.1, 48 kHz, ~1509 Кбит/с | Профессиональный (многоголосый, закадровый) |
Аудио #2: Русский: DTS, 5.1, 48 kHz, ~1509 Кбит/с | Авторский (одноголосый, закадровый) Гаврилов |
Аудио #3: Английский: DTS, 5.1, 48 kHz, ~1509 Кбит/с | Оригинал |
Субтитры: английские (полные)
Главы: Присутствуют, сохранены оригинальные
MediaInfo
Уникальный идентификатор : 225431871382124669854861414874934779555 (0xA9989961FC993BE3B3C01E8CE4719EA3)
Полное имя : Leviathan.1989.720p.BluRay.2xRus.Eng.-HQCLUB.mkv
Формат : Matroska
Версия формата : Version 2
Размер файла : 6,80 Гбайт
Продолжительность : 1 ч. 38 м.
Общий поток : 9931 Кбит/сек
Дата кодирования : UTC 2015-02-27 21:15:03
Программа кодирования : mkvmerge v5.2.0 ('I can't explain') built on Dec 18 2011 18:12:03
Библиотека кодирования : libebml v1.2.3 + libmatroska v1.3.0
Видео
Идентификатор : 1
Формат : AVC
Формат/Информация : Advanced Video Codec
Профиль формата : High@L4.1
Параметр CABAC формата : Да
Параметр ReFrames формата : 10 кадров
Идентификатор кодека : V_MPEG4/ISO/AVC
Продолжительность : 1 ч. 38 м.
Битрейт : 5400 Кбит/сек
Ширина : 1280 пикселей
Высота : 546 пикселей
Соотношение сторон : 2,35:1
Режим частоты кадров : Постоянный
Частота кадров : 23,976 кадра/сек
Цветовое пространство : YUV
Субдискретизация насыщенности : 4:2:0
Битовая глубина : 8 бит
Тип развёртки : Прогрессивная
Бит/(Пиксели*Кадры) : 0.322
Размер потока : 3,56 Гбайт (52%)
Заголовок : Левиафан / Leviathan (1989) BDRip 720p by HQCLUB [Elheym]
Библиотека кодирования : x264 core 144 r2525kMod 40bb568
Настройки программы : cabac=1 / ref=10 / deblock=1:-3:-3 / analyse=0x3:0x113 / me=umh / subme=11 / psy=1 / fade_compensate=0.00 / psy_rd=0.90:0.00 / mixed_ref=1 / me_range=32 / chroma_me=1 / trellis=2 / 8x8dct=1 / cqm=0 / deadzone=21,11 / fast_pskip=1 / chroma_qp_offset=-2 / threads=6 / lookahead_threads=1 / sliced_threads=0 / nr=0 / decimate=1 / interlaced=0 / bluray_compat=0 / constrained_intra=0 / fgo=0 / bframes=13 / b_pyramid=2 / b_adapt=2 / b_bias=0 / direct=3 / weightb=1 / open_gop=0 / weightp=2 / keyint=230 / keyint_min=23 / scenecut=40 / intra_refresh=0 / rc_lookahead=80 / rc=2pass / mbtree=0 / bitrate=5400 / ratetol=1.0 / qcomp=0.70 / qpmin=0 / qpmax=69 / qpstep=4 / cplxblur=20.0 / qblur=0.5 / vbv_maxrate=50000 / vbv_bufsize=62500 / nal_hrd=none / filler=0 / ip_ratio=1.40 / pb_ratio=1.30 / aq=3:0.90
Язык : English
Default : Да
Forced : Нет
Аудио #1
Идентификатор : 2
Формат : DTS
Формат/Информация : Digital Theater Systems
Режим : 16
Параметр Endianness формата : Big
Идентификатор кодека : A_DTS
Продолжительность : 1 ч. 38 м.
Вид битрейта : Постоянный
Битрейт : 1509 Кбит/сек
Каналы : 6 каналов
Расположение каналов : Front: L C R, Side: L R, LFE
Частота : 48,0 КГц
Битовая глубина : 24 бит
Метод сжатия : С потерями
Размер потока : 1,03 Гбайт (15%)
Заголовок : DTS 5.1 @ 1509 kbps - MVO
Язык : Russian
Default : Нет
Forced : Нет
Аудио #2
Идентификатор : 3
Формат : DTS
Формат/Информация : Digital Theater Systems
Режим : 16
Параметр Endianness формата : Big
Идентификатор кодека : A_DTS
Продолжительность : 1 ч. 38 м.
Вид битрейта : Постоянный
Битрейт : 1509 Кбит/сек
Каналы : 6 каналов
Расположение каналов : Front: L C R, Side: L R, LFE
Частота : 48,0 КГц
Битовая глубина : 24 бит
Метод сжатия : С потерями
Размер потока : 1,03 Гбайт (15%)
Заголовок : DTS 5.1 @ 1509 kbps - AVO, Gavrilov
Язык : Russian
Default : Нет
Forced : Нет
Аудио #3
Идентификатор : 4
Формат : DTS
Формат/Информация : Digital Theater Systems
Режим : 16
Параметр Endianness формата : Big
Идентификатор кодека : A_DTS
Продолжительность : 1 ч. 38 м.
Вид битрейта : Постоянный
Битрейт : 1509 Кбит/сек
Каналы : 6 каналов
Расположение каналов : Front: L C R, Side: L R, LFE
Частота : 48,0 КГц
Битовая глубина : 24 бит
Метод сжатия : С потерями
Размер потока : 1,03 Гбайт (15%)
Заголовок : DTS 5.1 @ 1509 kbps - Original
Язык : English
Default : Нет
Forced : Нет
Текст
Идентификатор : 5
Формат : UTF-8
Идентификатор кодека : S_TEXT/UTF8
Идентификатор кодека/Информация : UTF-8 Plain Text
Заголовок : Full
Язык : English
Default : Нет
Forced : Нет
Меню
00:00:00.000 : :Chapter 01
00:09:03.543 : :Chapter 02
00:20:53.251 : :Chapter 03
00:30:06.679 : :Chapter 04
00:37:13.648 : :Chapter 05
00:42:23.374 : :Chapter 06
00:47:19.211 : :Chapter 07
00:55:52.807 : :Chapter 08
01:03:30.431 : :Chapter 09
01:09:26.162 : :Chapter 10
01:17:29.853 : :Chapter 11
01:29:53.387 : :Chapter 12
x264 log
x264 [info]: frame I:1121 Avg QP:14.09 size:103797
x264 [info]: frame P:27999 Avg QP:16.25 size: 45434
x264 [info]: frame B:111881 Avg QP:18.14 size: 23069
x264 [info]: consecutive B-frames: 1.7% 2.5% 7.3% 14.0% 10.5% 42.9% 10.3% 2.4% 2.1% 1.6% 1.3% 1.4% 1.2% 0.9%
x264 [info]: ref P L0: 38.8% 8.7% 18.7% 8.5% 7.1% 5.3% 4.7% 2.8% 2.7% 2.4% 0.3% 0.0%
x264 [info]: ref B L0: 62.8% 14.5% 8.2% 4.6% 3.4% 2.8% 2.3% 1.0% 0.4%
x264 [info]: ref B L1: 89.4% 10.6%
Скриншоты Сравнения с исходником
-Источник- -Рип-
Скачать

Скачать торрент!

Как скачивать? · Что такое торрент? · Рейтинг и ограничения

Сайт не распространяет и не хранит электронные версии произведений, а лишь предоставляет доступ к создаваемому пользователями каталогу ссылок на торрент-файлы, которые содержат только списки хеш-сумм

[Профиль] [ЛС]
Показать сообщения:    
Ответить на тему

Текущее время: Сегодня 05:54

Часовой пояс: GMT + 4



Вы не можете начинать темы
Вы не можете отвечать на сообщения
Вы не можете редактировать свои сообщения
Вы не можете удалять свои сообщения
Вы не можете голосовать в опросах
Вы не можете прикреплять файлы к сообщениям
Вы не можете скачивать файлы