Бёрдмэн / Birdman (Алехандро Гонсалес Иньярриту / Alejandro González Iñárritu) [2014, США, Канада, драма, комедия, BDRemux 1080p] Dub + Ukr + 2х VO (Есарев, Матвеев) + Sub Rus, Ukr, Eng + Original Eng

Ответить на тему
 
Автор Сообщение

user ®

Стаж: 7 лет 7 месяцев

Сообщений: 20008

Пост Пост: #1 от 10-Мар-2015 18:21

[Цитировать]

Бёрдмэн / Birdman Страна: США, Канада
Студия: New Regency Pictures, M Prods, Grisbi Productions
Жанр: драма, комедия
Год выпуска: 2014
Продолжительность: 01:59:17
Перевод 1: Профессиональный (дублированный) Blu-ray EUR
Перевод 2: Одноголосый (закадровый) Есарев
Перевод 3: Одноголосый (закадровый) Матвеев
Cубтитры: русские (forced BD, full BD, iTunes, Матвеев), украинские (forced, full), английские (full, SDH, SDH COLORED)
Оригинальная аудиодорожка: английский
Режиссер: Алехандро Гонсалес Иньярриту / Alejandro González Iñárritu
В ролях: Майкл Китон, Зак Галифианакис, Эдвард Нортон, Андреа Райзборо, Эми Райан, Эмма Стоун, Наоми Уоттсон, Кенни Чин, Жамаль Гаррисон-Лоу, Джереми Шамос
Описание: В центре сюжета бывший актер, некогда сыгравший роль популярного супергероя Бёрдмэна, и теперь, переступая через свое эго, он решает принять участие в новой бродвейской постановке с целью вернуть себе былую славу, блеск и величие.


Тип релиза: BDRemux 1080p
Контейнер: MKV
Видео: AVC, 1920x1080, 34182 kbps, 23.976 fps
Аудио 1: Russian: 48 kHz, DTS, 3/2 (L,C,R,l,r) + LFE ch, ~768.00 kbps avg |Blu-ray EUR|
Аудио 2: Ukrainian: 48 kHz, DTS, 3/2 (L,C,R,l,r) + LFE ch, ~1536.00 kbps avg |Цікава ідея|
Аудио 3: Russian DTS-HD Master Audio / 3750kbps / 5.1 / 48 kHz / 24-bit (DTS Core: 5.1 / 48 kHz / 1509 kbps / 24-bit) |Есарев|
Аудио 4: Russian DTS-HD Master Audio / 3732kbps / 5.1 / 48 kHz / 24-bit (DTS Core: 5.1 / 48 kHz / 1509 kbps / 24-bit) |Матвеев|
Аудио 5: English DTS-HD Master Audio / 3770kbps / 5.1 / 48 kHz / 24-bit (DTS Core: 5.1 / 48 kHz / 1509 kbps / 24-bit) |Original|
Чаптеры: есть

MediaInfo
General
Unique ID : 191591037835184262576687569018228332849 (0x902317789F5205068BF676713AD05931)
Complete name : D:\рипы\Birdman.2014.1080p.BluRay.REMUX.AVC.DTS-HD.MA.5.1-Talian-.mkv
Format : Matroska
Format version : Version 2
File size : 39.7 GiB
Duration : 1h 59mn
Overall bit rate mode : Variable
Overall bit rate : 47.6 Mbps
Movie name : Birdman-Talian-
Encoded date : UTC 2015-03-09 19:52:03
Writing application : mkvmerge v5.7.0 ('The Whirlwind') built on Jul 8 2012 20:08:51
Writing library : libebml v1.2.3 + libmatroska v1.3.0
Video
ID : 1
Format : AVC
Format/Info : Advanced Video Codec
Format profile : High@L4.1
Format settings, CABAC : Yes
Format settings, ReFrames : 4 frames
Codec ID : V_MPEG4/ISO/AVC
Duration : 1h 59mn
Bit rate mode : Variable
Bit rate : 39.2 Mbps
Maximum bit rate : 36.4 Mbps
Width : 1 920 pixels
Height : 1 080 pixels
Display aspect ratio : 16:9
Frame rate : 23.976 fps
Color space : YUV
Chroma subsampling : 4:2:0
Bit depth : 8 bits
Scan type : Progressive
Bits/(Pixel*Frame) : 0.788
Stream size : 32.6 GiB (82%)
Title : BDRemux
Language : English
Default : Yes
Forced : No
Audio #1
ID : 2
Format : DTS
Format/Info : Digital Theater Systems
Codec ID : A_DTS
Duration : 1h 59mn
Bit rate mode : Constant
Bit rate : 755 Kbps
Channel(s) : 6 channels
Channel positions : Front: L C R, Side: L R, LFE
Sampling rate : 48.0 KHz
Bit depth : 24 bits
Compression mode : Lossy
Stream size : 644 MiB (2%)
Title : DUB- Blu-Ray EUR
Language : Russian
Default : Yes
Forced : No
Audio #2
ID : 3
Format : DTS
Format/Info : Digital Theater Systems
Codec ID : A_DTS
Duration : 1h 59mn
Bit rate mode : Constant
Bit rate : 1 510 Kbps
Channel(s) : 6 channels
Channel positions : Front: L C R, Side: L R, LFE
Sampling rate : 48.0 KHz
Bit depth : 16 bits
Compression mode : Lossy
Stream size : 1.26 GiB (3%)
Title : MVO- Цікава ідея
Language : Ukrainian
Default : No
Forced : No
Audio #3
ID : 4
Format : DTS
Format/Info : Digital Theater Systems
Format profile : MA / Core
Codec ID : A_DTS
Duration : 1h 59mn
Bit rate mode : Variable
Bit rate : 1 561 Kbps / 1 510 Kbps
Channel(s) : 6 channels
Channel positions : Front: L C R, Side: L R, LFE
Sampling rate : 48.0 KHz
Bit depth : 24 bits
Compression mode : Lossless / Lossy
Title : VO-Есарев
Language : Russian
Default : No
Forced : No
Audio #4
ID : 5
Format : DTS
Format/Info : Digital Theater Systems
Format profile : MA / Core
Codec ID : A_DTS
Duration : 1h 59mn
Bit rate mode : Variable
Bit rate : 2 089 Kbps / 1 510 Kbps
Channel(s) : 6 channels
Channel positions : Front: L C R, Side: L R, LFE
Sampling rate : 48.0 KHz
Bit depth : 24 bits
Compression mode : Lossless / Lossy
Title : VO-Матвеев
Language : Russian
Default : No
Forced : No
Audio #5
ID : 6
Format : DTS
Format/Info : Digital Theater Systems
Format profile : MA / Core
Codec ID : A_DTS
Duration : 1h 59mn
Bit rate mode : Variable
Bit rate : 1 561 Kbps / 1 510 Kbps
Channel(s) : 6 channels
Channel positions : Front: L C R, Side: L R, LFE
Sampling rate : 48.0 KHz
Bit depth : 24 bits
Compression mode : Lossless / Lossy
Title : Original
Language : English
Default : No
Forced : No
Text #1
ID : 7
Format : UTF-8
Codec ID : S_TEXT/UTF8
Codec ID/Info : UTF-8 Plain Text
Title : Sub-forced BD
Language : Russian
Default : Yes
Forced : No
Text #2
ID : 8
Format : UTF-8
Codec ID : S_TEXT/UTF8
Codec ID/Info : UTF-8 Plain Text
Title : Sub-full BD
Language : Russian
Default : No
Forced : No
Text #3
ID : 9
Format : UTF-8
Codec ID : S_TEXT/UTF8
Codec ID/Info : UTF-8 Plain Text
Title : Sub-full iTunes
Language : Russian
Default : No
Forced : No
Text #4
ID : 10
Format : UTF-8
Codec ID : S_TEXT/UTF8
Codec ID/Info : UTF-8 Plain Text
Title : Sub-full Матвеев
Language : Russian
Default : No
Forced : No
Text #5
ID : 11
Format : UTF-8
Codec ID : S_TEXT/UTF8
Codec ID/Info : UTF-8 Plain Text
Title : Sub-forced
Language : Ukrainian
Default : No
Forced : No
Text #6
ID : 12
Format : UTF-8
Codec ID : S_TEXT/UTF8
Codec ID/Info : UTF-8 Plain Text
Title : Sub-full
Language : Ukrainian
Default : No
Forced : No
Text #7
ID : 13
Format : UTF-8
Codec ID : S_TEXT/UTF8
Codec ID/Info : UTF-8 Plain Text
Title : Sub-full
Language : English
Default : No
Forced : No
Text #8
ID : 14
Format : UTF-8
Codec ID : S_TEXT/UTF8
Codec ID/Info : UTF-8 Plain Text
Title : Sub-SDH
Language : English
Default : No
Forced : No
Text #9
ID : 15
Format : UTF-8
Codec ID : S_TEXT/UTF8
Codec ID/Info : UTF-8 Plain Text
Title : Sub-SDH COLORED
Language : English
Default : No
Forced : No
Menu
00:00:00.000 : en:00:00:00.000
00:03:29.084 : en:00:03:29.084
00:07:33.828 : en:00:07:33.828
00:09:08.506 : en:00:09:08.506
00:12:39.384 : en:00:12:39.384
00:16:53.429 : en:00:16:53.429
00:19:07.146 : en:00:19:07.146
00:20:22.096 : en:00:20:22.096
00:25:21.186 : en:00:25:21.186
00:31:45.028 : en:00:31:45.028
00:36:09.834 : en:00:36:09.834
00:37:12.772 : en:00:37:12.772
00:42:09.444 : en:00:42:09.444
00:48:49.802 : en:00:48:49.802
00:53:30.541 : en:00:53:30.541
00:58:31.341 : en:00:58:31.341
01:03:17.085 : en:01:03:17.085
01:08:29.147 : en:01:08:29.147
01:12:42.567 : en:01:12:42.567
01:17:01.450 : en:01:17:01.450
01:20:45.090 : en:01:20:45.090
01:25:13.984 : en:01:25:13.984
01:28:04.946 : en:01:28:04.946
01:33:22.472 : en:01:33:22.472
01:39:14.949 : en:01:39:14.949
01:43:10.726 : en:01:43:10.726
01:46:43.856 : en:01:46:43.856
01:52:16.855 : en:01:52:16.855
Доп.информация
Перевод Алексея Матвеева доступен благодаря: будулайроманов, Shrooms, 7654, ACID, dikii, Wa1ker, vupen, spiralarch, Loki1982, Alex_digg, save2x2, sivservik, olddrinker, Kruj0k, timur, GodFather, Salinger. Работа со звуком: Переводман.
Перевод Дмитрия Есарева доступен благодаря: mihey10. Работа со звуком: mihaildns.
Скриншоты
Скачать

Скачать торрент!

Как скачивать? · Что такое торрент? · Рейтинг и ограничения

Сайт не распространяет и не хранит электронные версии произведений, а лишь предоставляет доступ к создаваемому пользователями каталогу ссылок на торрент-файлы, которые содержат только списки хеш-сумм

[Профиль] [ЛС]
Показать сообщения:    
Ответить на тему

Текущее время: Сегодня 07:04

Часовой пояс: GMT + 4



Вы не можете начинать темы
Вы не можете отвечать на сообщения
Вы не можете редактировать свои сообщения
Вы не можете удалять свои сообщения
Вы не можете голосовать в опросах
Вы не можете прикреплять файлы к сообщениям
Вы не можете скачивать файлы