Студентка / L\'étudiante (Клод Пиното / Claude Pinoteau) [1988, Франция, Италия, мелодрама, комедия, BDRip 1080p] Dub (Советский) + 2x MVO + Ukr + VO (Дружинина) + Sub Rus, Eng, Fre + Original Fre

Ответить на тему
 
Автор Сообщение

user ®

Стаж: 7 лет 7 месяцев

Сообщений: 20008

Пост Пост: #1 от 09-Мар-2015 13:00

[Цитировать]

Студентка / L'étudiante
Страна: Франция, Италия
Жанр: мелодрама, комедия
Год выпуска: 1988
Продолжительность: 01:43:58
Перевод 1: Профессиональный (дублированный) Советский
Перевод 2: Профессиональный (многоголосый закадровый) ТК НТВ+, ТК СТС
Перевод 3: Профессиональный (многоголосый закадровый) Союз-Видео
Перевод 4: Одноголосый закадровый Дружинина
Перевод 5: Профессиональный (многоголосый закадровый) ТЕТ
Cубтитры: русские, английские, французские
Оригинальная аудиодорожка: французский
Режиссер: Клод Пиното / Claude Pinoteau
В ролях: Софи Марсо, Венсан Линдон, Элизабет Витали, Жан-Клод Легэ, Элена Помпеи, Роберто Эттиэс, Бриджитт Шамаранд, Кристиан Перейра, Беппе Черличи, Натали Манн
Описание: Валентина выросла, ей исполнился двадцать один год и она сейчас подрабатывает учительницей и готовится к важным экзаменам в университете. В это время она встречает Неда, музыканта, который надеется когда-нибудь стать композитором.
Несмотря на то, что они оба работают в разное время и с трудом находят время для встреч, между ними возникает пылкая связь. И на экзамене в Сорбонне Валентина анализирует свои отношения с Недом при рассмотрении сухой диссертации по мольеровскому «Мизантропу».
Сэмпл: http://sendfile.su/1093728
Тип релиза: BDRip 1080p
Контейнер: MKV
Видео : AVC 1920 x 1080 (16:9) 23,976 fps, 16860 kbps
Аудио 1: Russian DTS / 1.0 / 48 kHz / 768 kbps - дубляж
Аудио 2: Russian DTS / 2.0 / 48 kHz / 1509 kbps - НТВ+
Аудио 3: Russian DTS / 2.0 / 48 kHz / 1509 kbps - Союз-Видео
Аудио 4: Russian DTS / 2.0 / 48 kHz / 1509 kbps - Дружинина
Аудио 5: Ukrainian Dolby Digital Audio / 2.0 / 48 kHz / 192 kbps - ТЕТ
Аудио 6: French DTS / 2.0 / 48 kHz / 1509 kbps
Аудио 7: English AAC / 2.0 / 48 kHz / 64 kbps Коментарии
Релиз: by madoff
MediaInfo
Общее
Уникальный идентификатор : 179220599978491013423269679028140618959 (0x86D4A1CBBB8955C38D19E5E1730DB4CF)
Полное имя : D:\L'étudiante\L'etudiante.1988.1080p.BluRay.4xRus.Ukr.2xFre.HDCLUB.mkv
Формат : Matroska
Версия формата : Version 2
Размер файла : 17,4 Гбайт
Продолжительность : 1 ч. 43 м.
Общий поток : 23,9 Мбит/сек
Название фильма : L'étudiante (1988) - Release for HDCLUB
Дата кодирования : UTC 2015-02-27 18:26:00
Программа кодирования : mkvmerge v5.7.0 ('The Whirlwind') built on Jul 8 2012 20:08:51
Библиотека кодирования : libebml v1.2.3 + libmatroska v1.3.0
Видео
Идентификатор : 1
Формат : AVC
Формат/Информация : Advanced Video Codec
Профиль формата : High@L4.1
Параметр CABAC формата : Да
Параметр ReFrames формата : 4 кадра
Идентификатор кодека : V_MPEG4/ISO/AVC
Продолжительность : 1 ч. 43 м.
Ширина : 1920 пикселей
Высота : 1032 пикселя
Соотношение сторон : 1,85:1
Режим частоты кадров : Постоянный
Частота кадров : 23,976 кадра/сек
Цветовое пространство : YUV
Субдискретизация насыщенности : 4:2:0
Битовая глубина : 8 бит
Тип развёртки : Прогрессивная
Библиотека кодирования : x264 core 144 r0+2574 9abcd72 t_mod_Custom [8-bit@all X86_64]
Настройки программы : cabac=1 / ref=4 / deblock=1:-3:-3 / analyse=0x3:0x113 / me=umh / subme=10 / psy=1 / fade_compensate=0.00 / psy_rd=1.10:0.00 / mixed_ref=1 / me_range=32 / chroma_me=1 / trellis=2 / 8x8dct=1 / cqm=0 / deadzone=21,11 / fast_pskip=0 / chroma_qp_offset=-2 / threads=12 / lookahead_threads=2 / sliced_threads=0 / nr=0 / decimate=0 / interlaced=0 / bluray_compat=0 / constrained_intra=0 / fgo=0 / bframes=7 / b_pyramid=2 / b_adapt=2 / b_bias=0 / direct=3 / weightb=1 / open_gop=0 / weightp=2 / keyint=240 / keyint_min=23 / scenecut=40 / intra_refresh=0 / rc_lookahead=50 / rc=crf / mbtree=0 / crf=19.4000 / qcomp=0.75 / qpmin=0:0:0 / qpmax=69:69:69 / qpstep=4 / vbv_maxrate=62500 / vbv_bufsize=78125 / crf_max=0.0 / nal_hrd=none / filler=0 / ip_ratio=1.20 / pb_ratio=1.10 / aq=1:0.55 / aq-sensitivity=10.00 / aq-factor=1.00:1.00:1.00 / aq2=1:0.45 / aq2-sensitivity=15.00 / aq2-factor=1.00:1.00:1.00 / aq3=0
Язык : French
Default : Да
Forced : Нет
Основные цвета : BT.709
Характеристики трансфера : BT.709
Коэффициенты матрицы : BT.709
colour_range : Limited
Аудио #1
Идентификатор : 2
Формат : DTS
Формат/Информация : Digital Theater Systems
Режим : 16
Параметр Endianness формата : Big
Идентификатор кодека : A_DTS
Продолжительность : 1 ч. 43 м.
Вид битрейта : Постоянный
Битрейт : 768 Кбит/сек
Каналы : 1 канал
Расположение каналов : Front: C
Частота : 48,0 КГц
Битовая глубина : 16 бит
Метод сжатия : С потерями
Размер потока : 571 Мбайт (3%)
Заголовок : |Дубляж, Советский|
Язык : Russian
Default : Да
Forced : Нет
Аудио #2
Идентификатор : 3
Формат : DTS
Формат/Информация : Digital Theater Systems
Режим : 16
Параметр Endianness формата : Big
Идентификатор кодека : A_DTS
Продолжительность : 1 ч. 43 м.
Вид битрейта : Постоянный
Битрейт : 1509 Кбит/сек
Каналы : 2 канала
Расположение каналов : Front: L R
Частота : 48,0 КГц
Битовая глубина : 16 бит
Метод сжатия : С потерями
Размер потока : 1,10 Гбайт (6%)
Заголовок : |Многоголосый закадровый, ТК "НТВ+", ТК "СТС"|
Язык : Russian
Default : Нет
Forced : Нет
Аудио #3
Идентификатор : 4
Формат : DTS
Формат/Информация : Digital Theater Systems
Режим : 16
Параметр Endianness формата : Big
Идентификатор кодека : A_DTS
Продолжительность : 1 ч. 43 м.
Вид битрейта : Постоянный
Битрейт : 1509 Кбит/сек
Каналы : 2 канала
Расположение каналов : Front: L R
Частота : 48,0 КГц
Битовая глубина : 16 бит
Метод сжатия : С потерями
Размер потока : 1,10 Гбайт (6%)
Заголовок : |Многоголосый закадровый, Союз-Видео|
Язык : Russian
Default : Нет
Forced : Нет
Аудио #4
Идентификатор : 5
Формат : DTS
Формат/Информация : Digital Theater Systems
Режим : 16
Параметр Endianness формата : Big
Идентификатор кодека : A_DTS
Продолжительность : 1 ч. 43 м.
Вид битрейта : Постоянный
Битрейт : 1509 Кбит/сек
Каналы : 2 канала
Расположение каналов : Front: L R
Частота : 48,0 КГц
Битовая глубина : 16 бит
Метод сжатия : С потерями
Размер потока : 1,10 Гбайт (6%)
Заголовок : |Одноголосый закадровый, Н.Дружинина|
Язык : Russian
Default : Нет
Forced : Нет
Аудио #5
Идентификатор : 6
Формат : AC-3
Формат/Информация : Audio Coding 3
Расширение режима : CM (complete main)
Параметр Endianness формата : Big
Идентификатор кодека : A_AC3
Продолжительность : 1 ч. 43 м.
Вид битрейта : Постоянный
Битрейт : 192 Кбит/сек
Каналы : 2 канала
Расположение каналов : Front: L R
Частота : 48,0 КГц
Битовая глубина : 16 бит
Метод сжатия : С потерями
Размер потока : 143 Мбайт (1%)
Заголовок : |Многоголосый закадровый, ТЕТ|
Язык : Ukrainian
Default : Нет
Forced : Нет
Аудио #6
Идентификатор : 7
Формат : DTS
Формат/Информация : Digital Theater Systems
Режим : 16
Параметр Endianness формата : Big
Идентификатор кодека : A_DTS
Продолжительность : 1 ч. 43 м.
Вид битрейта : Постоянный
Битрейт : 1510 Кбит/сек
Каналы : 2 канала
Расположение каналов : Front: L R
Частота : 48,0 КГц
Битовая глубина : 16 бит
Метод сжатия : С потерями
Размер потока : 1,10 Гбайт (6%)
Язык : French
Default : Нет
Forced : Нет
Аудио #7
Идентификатор : 8
Формат : AAC
Формат/Информация : Advanced Audio Codec
Профиль формата : HE-AAC / LC
Идентификатор кодека : A_AAC
Продолжительность : 1 ч. 43 м.
Каналы : 2 канала
Расположение каналов : Front: L R
Частота : 48,0 КГц / 24,0 КГц
Метод сжатия : С потерями
Заголовок : Commentary with the cast
Язык : French
Default : Нет
Forced : Нет
Текст #1
Идентификатор : 9
Формат : UTF-8
Идентификатор кодека : S_TEXT/UTF8
Идентификатор кодека/Информация : UTF-8 Plain Text
Язык : Russian
Default : Нет
Forced : Нет
Текст #2
Идентификатор : 10
Формат : UTF-8
Идентификатор кодека : S_TEXT/UTF8
Идентификатор кодека/Информация : UTF-8 Plain Text
Язык : English
Default : Нет
Forced : Нет
Текст #3
Идентификатор : 11
Формат : PGS
Режим смешивания : zlib
Идентификатор кодека : S_HDMV/PGS
Идентификатор кодека/Информация : The same subtitle format used on BDs/HD-DVDs
Язык : French
Default : Нет
Forced : Нет
Меню
00:00:00.000 : en:00:00:00.000
00:05:49.391 : en:00:05:49.391
00:09:29.110 : en:00:09:29.110
00:20:36.944 : en:00:20:36.944
00:29:01.406 : en:00:29:01.406
00:38:55.041 : en:00:38:55.041
00:44:43.055 : en:00:44:43.055
00:52:08.125 : en:00:52:08.125
00:55:08.305 : en:00:55:08.305
01:04:00.545 : en:01:04:00.545
01:10:14.836 : en:01:10:14.836
01:19:02.947 : en:01:19:02.947
01:26:43.615 : en:01:26:43.615
01:32:02.851 : en:01:32:02.851
01:43:58.899 : en:01:43:58.899
Скриншоты
Скачать

Скачать торрент!

Как скачивать? · Что такое торрент? · Рейтинг и ограничения

Сайт не распространяет и не хранит электронные версии произведений, а лишь предоставляет доступ к создаваемому пользователями каталогу ссылок на торрент-файлы, которые содержат только списки хеш-сумм

[Профиль] [ЛС]
Показать сообщения:    
Ответить на тему

Текущее время: Сегодня 21:23

Часовой пояс: GMT + 4



Вы не можете начинать темы
Вы не можете отвечать на сообщения
Вы не можете редактировать свои сообщения
Вы не можете удалять свои сообщения
Вы не можете голосовать в опросах
Вы не можете прикреплять файлы к сообщениям
Вы не можете скачивать файлы