Исчезнувшая / Пропавшая без вести / Gone Missing (Тара Миле / Tara Miele) [2013, США, триллер, детектив, драма, криминал, приключения, BDRip, 720p] MVO (RG Колобок & Victory-Films)

Ответить на тему
 
Автор Сообщение

user ®

Стаж: 7 лет 7 месяцев

Сообщений: 20008

Пост Пост: #1 от 09-Мар-2015 13:00

[Цитировать]

Исчезнувшая / Пропавшая без вести / Gone Missing
Жанр: Триллер, детектив, драма, криминал, приключения
Год выпуска: 2013
Выпущено: США, Protocol Entertainment, Vanished Prods
Продолжительность: 01:26:20
Перевод: Любительский (многоголосый закадровый) RG Колобок & Victory-Films
Оригинальная аудио-дорожка: Нет
Cубтитры: Нет
Режиссёр: Тара Миле
В ролях: Дафна Зунига, Лорен Боулз, Бригитт Давидовичи, Гейдж Голайтли, Николас Р. Грава, Джеймс Мартин Келли, Алехандро Патино, Брок Харрис, Хантер Гарнер, Дэвид Стифел
Описание: Рене и Лиза - матери двух 18-ти летних дочерей, которые так же, как и они дружат с детства и так же, как и они являются двумя противоположностями. Как и их характеры и отношение к жизни, их методы воспитания детей отличаются: Лиза разрешает дочери всё, что та пожелает, Рене же держит дочку в ежовых рукавицах, воспитывает в ней ответственность и сознательность. И вот, в пору весенних каникул, обе семьи отправляются на курорт рядом с мексиканской границей, чтобы отдохнуть. Девочкам не нравится находиться под присмотром матерей и они решают под покровом ночи нанести визит к симпатичным парням из соседнего номера. Вскоре девушки понимают, что влипли в опасную и двусмысленную ситуацию, из которой выбраться нелегко... и каждая из них делает свой выбор так, как научили их мамаши.

Качество видео: BDRip (720p) [Исходник: Blu-Ray Remux (1080p) от Виктора Сергеевича]
Формат: MKV
Видеокодек: H.264
Видео: MPEG-4 AVC, 6775 Кбит/с, 1280x720 (16:9), 23.976 кадр/с
Аудио: Русский, Dolby АС3, 48000 Гц, 448 Кбит/с, 6 каналов (5.1) - MVO [RG Колобок & Victory-Films]
Навигация по главам: Есть (Сохранены оригинальные чаптеры как на Blu-ray)

Автор рипа - ivandubskoj
О переводе
Перевод: Любительский многоголосый
Автор перевода - Северный
Озвучено: RG Колобок & Victory-Films
Текст читали: Den904, DeadSno, Андрей Питерский, Камила Юнусова, Елизавета Алейникова, Александр Палагута
MediaInfo
General
Unique ID : 208823523978283415370797823480817441340 (0x9D19F2A282DE5691A7E09EBC6E7EDA3C)
Complete name : Gone.Missing.2013.BDRip.720p.mkv
Format : Matroska
File size : 4.36 GiB
Duration : 1h 26mn
Overall bit rate : 7 223 Kbps
Movie name : Исчезнувшая / Пропавшая без вести / Gone Missing (2013) BDRip (720p) от ivandubskoj
Encoded date : UTC 2015-03-07 19:21:57
Writing application : mkvmerge v6.1.0 ('Old Devil') built on Mar 4 2013 09:10:42
Writing library : libebml v1.3.0 + libmatroska v1.4.0
Video
ID : 1
Format : AVC
Format/Info : Advanced Video Codec
Format profile : High@L4.1
Format settings, CABAC : Yes
Format settings, ReFrames : 7 frames
Codec ID : V_MPEG4/ISO/AVC
Duration : 1h 26mn
Bit rate : 6 775 Kbps
Width : 1 280 pixels
Height : 720 pixels
Display aspect ratio : 16:9
Frame rate : 23.976 fps
Color space : YUV
Chroma subsampling : 4:2:0
Bit depth : 8 bits
Scan type : Progressive
Bits/(Pixel*Frame) : 0.307
Stream size : 4.00 GiB (92%)
Title : Исчезнувшая / Пропавшая без вести / Gone Missing (2013)
Writing library : x264 core 130 r2273 b3065e6
Encoding settings : cabac=1 / ref=7 / deblock=1:-1:-1 / analyse=0x3:0x133 / me=umh / subme=9 / psy=1 / psy_rd=1.00:0.00 / mixed_ref=1 / me_range=32 / chroma_me=1 / trellis=2 / 8x8dct=1 / cqm=0 / deadzone=21,11 / fast_pskip=0 / chroma_qp_offset=-2 / threads=6 / lookahead_threads=1 / sliced_threads=0 / nr=0 / decimate=1 / interlaced=0 / bluray_compat=0 / constrained_intra=0 / bframes=5 / b_pyramid=2 / b_adapt=2 / b_bias=0 / direct=3 / weightb=1 / open_gop=0 / weightp=2 / keyint=250 / keyint_min=23 / scenecut=40 / intra_refresh=0 / rc_lookahead=50 / rc=2pass / mbtree=1 / bitrate=6775 / ratetol=1.0 / qcomp=0.60 / qpmin=0 / qpmax=69 / qpstep=4 / cplxblur=20.0 / qblur=0.5 / ip_ratio=1.40 / aq=1:1.00
Language : English
Audio
ID : 2
Format : AC-3
Format/Info : Audio Coding 3
Mode extension : CM (complete main)
Codec ID : A_AC3
Duration : 1h 26mn
Bit rate mode : Constant
Bit rate : 448 Kbps
Channel(s) : 6 channels
Channel positions : Front: L C R, Side: L R, LFE
Sampling rate : 48.0 KHz
Bit depth : 16 bits
Compression mode : Lossy
Stream size : 277 MiB (6%)
Title : MVO [RG Колобок & Victory-Films]
Language : Russian
Menu
00:00:00.000 : en:00:00:00.000
00:11:56.049 : en:00:11:56.049
00:21:24.450 : en:00:21:24.450
00:40:14.537 : en:00:40:14.537
00:49:33.929 : en:00:49:33.929
01:05:24.379 : en:01:05:24.379
01:10:44.490 : en:01:10:44.490
01:16:43.557 : en:01:16:43.557
Скриншот c названием фильма Скриншоты
Скачать

Скачать торрент!

Как скачивать? · Что такое торрент? · Рейтинг и ограничения

Сайт не распространяет и не хранит электронные версии произведений, а лишь предоставляет доступ к создаваемому пользователями каталогу ссылок на торрент-файлы, которые содержат только списки хеш-сумм

[Профиль] [ЛС]
Показать сообщения:    
Ответить на тему

Текущее время: Сегодня 00:41

Часовой пояс: GMT + 4



Вы не можете начинать темы
Вы не можете отвечать на сообщения
Вы не можете редактировать свои сообщения
Вы не можете удалять свои сообщения
Вы не можете голосовать в опросах
Вы не можете прикреплять файлы к сообщениям
Вы не можете скачивать файлы