Ярик (Александр Ласло, Сесиль Анри) [2008 г., Драма, DVDRip]

Ответить на тему
 
Автор Сообщение

user ®

Стаж: 7 лет 7 месяцев

Сообщений: 20008

Пост Пост: #1 от 09-Мар-2015 00:30

[Цитировать]

Ярик
Жанр: Драма
Год выпуска: 2008
Продолжительность: 01:23:09
Режиссёр: Александр Ласло, Сесиль Анри
В ролях: Максим Колесников, Анатолий Белый, Сергей Бадичкин, Сергей Векслер, Михаил Горевой, Владимир Долинский, Елена Ксенофонтова, Дмитрий Персин, Анна Уколова, Ульяна Фролова, Денис Беспалый, Армен Джигарханян, Екатерина Лапина, Инна Москвичева, Алексей Шадхин
Описание: Главному герою фильма — Ярославу — около шести лет. Вместе с мамой он приезжает в Москву к отцу, но тот их не встречает. Мама уходит купить Ярику что-нибудь поесть и не возвращается. Ребенок остается один в огромном городе. Ему предстоит оказаться в игорном доме, в милиции, в чужом автомобиле. Его кормят совершенно незнакомые люди, кто-то помогает, а кто-то пинает, как котенка. Мытарства и страдания юного существа в мегаполисе бесконечны и жестоки... Фильм поднимает замалчиваемую проблему нелегального вывоза за границу маленьких детей.
Доп. информация: Рип сделан с этого исходника пользователем кинозала fokinura с учетом альтернативной концовки: [url=http://***/forum/viewtopic.php?t=4957464]http://***/forum/viewtopic.php?t=4957464[/url] Отличие от кинозальской раздачи состоит в том, что титры альтернативной концовки убраны как повторяющие титры оригинальной концовки.
Сэмпл: https://www.sendspace.com/file/sw8dix
Качество видео: DVDRip
Формат видео: AVI
Видео: 2188 Кбит/сек, 720*400 (16:9), 25,000 кадров/сек, XviD
Аудио: Русский, 192 Кбит/сек, 48,0 КГц, 16 бит, 2 канала, AC-3
MediaInfo
ОбщееПолное имя : D:\MONAR.RU\Видео\Художественные фильмы\Постсоветское кино\Ярик (2008).aviФормат : AVIФормат/Информация : Audio Video InterleaveРазмер файла : 1,39 ГбайтПродолжительность : 1 ч. 23 м.Общий поток : 2389 Кбит/сек
ВидеоИдентификатор : 0Формат : MPEG-4 VisualПрофиль формата : Advanced Simple@L5Параметр BVOP формата : 1Параметр QPel формата : НетПараметр GMC формата : Без точки переходаПараметр матрицы формата : ВыборочнаяИдентификатор кодека : XVIDИдентификатор кодека/Подсказка : XviDПродолжительность : 1 ч. 23 м.Битрейт : 2188 Кбит/секШирина : 720 пикселейВысота : 400 пикселейСоотношение сторон : 16:9Частота кадров : 25,000 кадров/секЦветовое пространство : YUVСубдискретизация насыщенности : 4:2:0Битовая глубина : 8 битТип развёртки : ПрогрессивнаяМетод сжатия : С потерямиБит/(Пиксели*Кадры) : 0.304Размер потока : 1,27 Гбайт (92%)Библиотека кодирования : XviD 1.2.1 (UTC 2008-12-04)
АудиоИдентификатор : 1Формат : AC-3Формат/Информация : Audio Coding 3Расширение режима : CM (complete main)Параметр Endianness формата : BigИдентификатор кодека : 2000Продолжительность : 1 ч. 23 м.Продолжительность оригинала : 1 ч. 23 м.Вид битрейта : ПостоянныйБитрейт : 192 Кбит/секКаналы : 2 каналаРасположение каналов : Front: L RЧастота : 48,0 КГцБитовая глубина : 16 битМетод сжатия : С потерямиРазмер потока : 114 Мбайт (8%)Выравнивание : Соединение по промежуткамПродолжительность промежутка : 40 мс. (1,00 видеокадр)
Скриншот c названием фильма Скриншоты
Скачать

Скачать торрент!

Как скачивать? · Что такое торрент? · Рейтинг и ограничения

Сайт не распространяет и не хранит электронные версии произведений, а лишь предоставляет доступ к создаваемому пользователями каталогу ссылок на торрент-файлы, которые содержат только списки хеш-сумм

[Профиль] [ЛС]
Показать сообщения:    
Ответить на тему

Текущее время: Сегодня 09:44

Часовой пояс: GMT + 4



Вы не можете начинать темы
Вы не можете отвечать на сообщения
Вы не можете редактировать свои сообщения
Вы не можете удалять свои сообщения
Вы не можете голосовать в опросах
Вы не можете прикреплять файлы к сообщениям
Вы не можете скачивать файлы