Атака на Пёрл-Харбор / The Attack On Pearl Harbor / Rengô kantai shirei chôkan: Yamamoto Isoroku (Идзуру Нарусима / Izuru Narushima) [2011, Япония, драма, военный, биография, HDRip] Dub

Ответить на тему
 
Автор Сообщение

user ®

Стаж: 13 лет

Сообщений: 15071

Пост Пост: #1 от 08-Мар-2015 21:24

[Цитировать]

Атака на Пёрл-Харбор / The Attack On Pearl Harbor / Rengô kantai shirei chôkan: Yamamoto Isoroku
Страна: Япония
Жанр: драма, военный, биография
Год выпуска: 2011
Продолжительность: 02:20:24-Перевод: Профессиональный (дублированный)-Cубтитры: нет
Оригинальная аудиодорожка: нет
Режиссер: Идзуру Нарусима / Izuru Narushima
В ролях: Кодзи Якусё, Хироши Абе, Сюити Азумая, Мицугоро Бандо, Акира Эмото, Ёсихико Хакамада, Миэко Харада, Масато Ибу, Сюндзи Игараси, Теруюки Кагава
Описание: Конец 30-х годов прошлого века в Японии — время экономического кризиса, страшной безработицы и нищеты, политической нестабильности. Страна неуклонно двигалась к войне. Адмирал Ямамото, командующий императорским флотом, был одним из немногих, кто считал, что начинать войну с США нельзя. Ранее он не поддерживал ни вторжение в Маньчжурию, ни войну с Китаем. Его позиция вызывала гнев националистов и милитаристов. Они ненавидели Ямомото и угрожали ему. Адмиралу ежедневно грозила опасность стать жертвой покушения. Одновременно он был безгранично популярен во флоте, а также пользовался покровительством императора. Несмотря на его убеждения и предупреждения, когда война со Штатами стала неизбежной, именно Ямомото разработал план нападения на Перл-Харбор, в результате которого американский флот понес огромные потери.
Релиз от -
Сэмпл: http://multi-up.com/1037119
Качество видео: HDRip
Формат видео: AVI
Видео: MPEG-4 Visual at 1293 Кбит/сек; 704 x 384 (1.833) at 23.976 fps
Аудио: AC-3 at 192 Кбит/сек; 2 канала, 48,0 КГц
Автор -
MediaInfo
Общее
Полное имя : D:\Фильмы\Азиатские\Атака на Пёрл-Харбор\The Attack On Pearl Harbor.2011.BDRip.XviD.1400MB. rip by [Assassin's Creed].avi
Формат : AVI
Формат/Информация : Audio Video Interleave
Размер файла : 1,47 Гбайт
Продолжительность : 2 ч. 20 м.
Общий поток : 1494 Кбит/сек
Программа кодирования : VirtualDubMod 1.5.10.3 | www.virtualdub-fr.org || (build 2550/release)
Библиотека кодирования : VirtualDubMod build 2550/release
Видео
Идентификатор : 0
Формат : MPEG-4 Visual
Профиль формата : Advanced Simple@L5
Параметр BVOP формата : 1
Параметр QPel формата : Нет
Параметр GMC формата : Без точки перехода
Параметр матрицы формата : Default (MPEG)
Идентификатор кодека : XVID
Идентификатор кодека/Подсказка : XviD
Продолжительность : 2 ч. 20 м.
Битрейт : 1293 Кбит/сек
Ширина : 704 пикселя
Высота : 384 пикселя
Соотношение сторон : 1,85:1
Частота кадров : 23,976 кадра/сек
Цветовое пространство : YUV
Субдискретизация насыщенности : 4:2:0
Битовая глубина : 8 бит
Тип развёртки : Прогрессивная
Метод сжатия : С потерями
Бит/(Пиксели*Кадры) : 0.199
Размер потока : 1,27 Гбайт (87%)
Библиотека кодирования : XviD 1.2.1 (UTC 2008-12-04)
Аудио
Идентификатор : 1
Формат : AC-3
Формат/Информация : Audio Coding 3
Расширение режима : CM (complete main)
Параметр Endianness формата : Big
Идентификатор кодека : 2000
Продолжительность : 2 ч. 20 м.
Вид битрейта : Постоянный
Битрейт : 192 Кбит/сек
Каналы : 2 канала
Расположение каналов : Front: L R
Частота : 48,0 КГц
Битовая глубина : 16 бит
Метод сжатия : С потерями
Размер потока : 193 Мбайт (13%)
Выравнивание : Разделение по промежуткам
Продолжительность промежутка : 42 мс. (1,00 видеокадр)
Время предзагрузки промежутка : 500 мс.
Скриншот c названием фильма Скриншоты
Скачать

Скачать торрент! Атака на Пёрл-Харбор / The Attack On Pearl Harbor / Rengô kantai shirei chôkan: Yamamoto Isoroku (Идзуру Нарусима / Izuru Narushima) [2011, Япония, драма, военный, биография, HDRip] Dub

Как скачивать? · Что такое торрент? · Рейтинг и ограничения

Сайт не распространяет и не хранит электронные версии произведений, а лишь предоставляет доступ к создаваемому пользователями каталогу ссылок на торрент-файлы, которые содержат только списки хеш-сумм

[Профиль] [ЛС]
Показать сообщения:    
Ответить на тему

Текущее время: Сегодня 15:42

Часовой пояс: GMT + 4



Вы не можете начинать темы
Вы не можете отвечать на сообщения
Вы не можете редактировать свои сообщения
Вы не можете удалять свои сообщения
Вы не можете голосовать в опросах
Вы не можете прикреплять файлы к сообщениям
Вы не можете скачивать файлы