Написать любовь на её руках / To Write Love on Her Arms (Нэйтан Франковски / Nathan Frankowski) [2015, США, драма, биография, музыка, WEB-DL] Sub Rus + Original Eng

Ответить на тему
 
Автор Сообщение

user ®

Стаж: 7 лет 7 месяцев

Сообщений: 20008

Пост Пост: #1 от 08-Мар-2015 15:12

[Цитировать]

Написать любовь на её руках / To Write Love on Her Arms
Страна: США
Жанр: драма, биография, музыка
Год выпуска: 2015
Продолжительность: 01:42:25
Перевод: Субтитры
Cубтитры: русские
Оригинальная аудиодорожка: английский
Режиссер: Нэйтан Франковски / Nathan Frankowski
В ролях: Кэт Деннингс, Чад Майкл Мюррэй, Руперт Френд, Марк Сауль, Джулиана Харкви, Дрейтон Болл
Описание: Фильм рассказывает о девятнадцатилетней девушке по имени Рени, которая всегда любила сказки: ее идеалы — это принцессы, герои и вечно-счастливый конец. Но жизнь Рени больше похожа на страшную сказку: она борется с наркозависимостью, от которой страдает, а так же с депрессией и членовредительством. В творческой смеси художественной фантазии и суровой реальности, фильм показывает мужество и преодоление всех препятствий в жизни Рени.
Сэмпл: http://multi-up.com/1036814
Качество видео: WEB-DL
Формат видео: AVI
Видео: Xvid 720x304 (234:97) 23.976fps [V: mpeg4 simple profile, yuv420p, 720x304]
Аудио: Dolby AC3 48000Hz 6ch 384kbps [A: ac3, 48000 Hz, 5.1, 384 kb/s]
MediaInfo
General
Complete name : E:\Раздачи\To Write Love on Her Arms (2015)\To Write Love on Her Arms.avi
Format : AVI
Format/Info : Audio Video Interleave
File size : 1.40 GiB
Duration : 1h 42mn
Overall bit rate : 1 951 Kbps
Movie name : RARBG.COM - To.Write.Love.on.Her.Arms.2012.WEB-DL.XviD.AC3-RARBG
Writing library : VirtualDub build 35491/release
Comment : RARBG.COM - To.Write.Love.on.Her.Arms.2012.WEB-DL.XviD.AC3-RARBG
Video
ID : 0
Format : MPEG-4 Visual
Format profile : Simple@L5
Format settings, BVOP : No
Format settings, QPel : No
Format settings, GMC : No warppoints
Format settings, Matrix : Default (H.263)
Codec ID : XVID
Codec ID/Hint : XviD
Duration : 1h 42mn
Bit rate : 1 559 Kbps
Width : 720 pixels
Height : 304 pixels
Display aspect ratio : 2.40:1
Frame rate : 23.976 fps
Color space : YUV
Chroma subsampling : 4:2:0
Bit depth : 8 bits
Scan type : Progressive
Compression mode : Lossy
Bits/(Pixel*Frame) : 0.297
Stream size : 1.12 GiB (80%)
Writing library : Lavc56.20.100
Audio
ID : 1
Format : AC-3
Format/Info : Audio Coding 3
Mode extension : CM (complete main)
Format settings, Endianness : Big
Codec ID : 2000
Duration : 1h 42mn
Bit rate mode : Constant
Bit rate : 384 Kbps
Channel(s) : 6 channels
Channel positions : Front: L C R, Side: L R, LFE
Sampling rate : 48.0 KHz
Bit depth : 16 bits
Compression mode : Lossy
Stream size : 281 MiB (20%)
Alignment : Aligned on interleaves
Interleave, duration : 42 ms (1.00 video frame)
Interleave, preload duration : 512 ms
Фрагмент субтитров
1
00:01:06,483 --> 00:01:13,490
ЛЮБОВЬ
НА ЕЕ РУКАХ
2
00:01:21,956 --> 00:01:26,044
Я написал эту историю для Рене,
потому что
3
00:01:27,003 --> 00:01:28,129
ЛЮБОВЬ НА ЕЕ РУКАХ
СЕГОДНЯ В 8 ВЕЧЕРА
4
00:01:28,213 --> 00:01:30,006
я хотел верить в счастливый конец.
5
00:01:30,090 --> 00:01:31,633
ЛЮБОВЬ
НА ЕЕ РУКАХ
6
00:01:32,050 --> 00:01:33,301
Ее история не уникальна
7
00:01:34,636 --> 00:01:36,429
в отличие от нее самой,
8
00:01:38,640 --> 00:01:42,102
от того, как она говорит правду
9
00:01:42,852 --> 00:01:44,354
и как смотрит на этот мир.
10
00:01:52,612 --> 00:01:56,074
Давным-давно жила одна девочка,
которая любила сказки.
11
00:01:57,575 --> 00:02:00,704
В ее воображении день был ярким,
Скриншот с названием фильма Скриншоты
Скачать

Скачать торрент!

Как скачивать? · Что такое торрент? · Рейтинг и ограничения

Сайт не распространяет и не хранит электронные версии произведений, а лишь предоставляет доступ к создаваемому пользователями каталогу ссылок на торрент-файлы, которые содержат только списки хеш-сумм

[Профиль] [ЛС]
Показать сообщения:    
Ответить на тему

Текущее время: Сегодня 10:55

Часовой пояс: GMT + 4



Вы не можете начинать темы
Вы не можете отвечать на сообщения
Вы не можете редактировать свои сообщения
Вы не можете удалять свои сообщения
Вы не можете голосовать в опросах
Вы не можете прикреплять файлы к сообщениям
Вы не можете скачивать файлы