Ип Ман / Yip Man (Уилсон Ип / Wilson Yip) [2008, Китай, Боевик, драма, биография, спорт, BDRip] MVO (СТС) + DVO (НТВ) + AVO (Сербин)

Ответить на тему
 
Автор Сообщение

user ®

Стаж: 13 лет

Сообщений: 15071

Пост Пост: #1 от 08-Мар-2015 01:27

[Цитировать]

Ип Ман / Yip Man- Год выпуска: 2008
Выпущено: Гонконг, Китай / Time Antaeus Media Group
Жанр: боевик, драма, биография, спорт
Продолжительность: 01:46:21
Перевод (1): Профессиональный (многоголосый закадровый) СТС
Перевод (2): Профессиональный (двухголосый закадровый) НТВ
Перевод (3): Авторский (одноголосый закадровый) Юрий Сербин
Cубтитры: нет-Режиссер:
Уилсон Ип / Wilson Yip-В ролях:
Донни Ен (Yip Man), Саймон Ям (Chow Ching-Chuen), Ка Танг Лам (Captain Lei Chiu), Фан Сю-Вонг (Jin Shan Zhao / Kam Shan-Chau), Линн Хун (Cheung Wing-Sing), Хироюки Икэути (Miura), Тэнма Шибуя (Colonel Sato), Юй Син (Master Zealot Lam), Чжи-Хуи Чен (Master Liu), Ю-Нам Вонг (Sa Dam Yun)-Описание:
Ип Ман — признанный мастер кунг фу, живущий в Фошане, городе, славном своими школами боевых искусств. Ип Ман практикует Вин Чун и хотя является сильнейшим бойцом города, своей школы у него нет, и он не берет учеников. Дома он проводит лишь легкие спарринги с приятелями, чтобы указать на ошибки друг друга. Проходят годы, Китай захватывают воинственные японцы, и Ип Ман оказывается одним из немногих, кто даже в жесточайших условиях оккупации не забывает о чести, достоинстве и, конечно же, мудрости, которую несет в себе кунг-фу.-Релиз групп [url=http://***/forum/viewtopic.php?t=1677970] [/url] | | IMDB | КиноПоиск | Сэмпл |-Качество: BDRip [BDRemux | 1080p | HDCLUB]
Формат: AVI
Видео: 720x304 (2.37:1), 24.000 fps, XviD build 73 ~1567 kbps avg, 0.30 bit/pixel
Аудио #1: 48 kHz, AC3 Dolby Digital, 2/0 (L,R) ch, ~192.00 kbps avg (MVO) СТС
Аудио #2: 48 kHz, AC3 Dolby Digital, 2/0 (L,R) ch, ~192.00 kbps avg (DVO) НТВ
Аудио #3: 48 kHz, AC3 Dolby Digital, 3/2 (L,C,R,l,r) + LFE ch, ~384.00 kbps avg (AVO) Юрий Сербин (отдельно)
-Скриншоты MediaInfo
General
Complete name                            : D:\Ip_Man_2008_BDRip_by_Dalemake.avi
Format                                   : AVI
Format/Info                              : Audio Video Interleave
File size                                : 1.46 GiB
Duration                                 : 1h 46mn
Overall bit rate                         : 1 966 Kbps
Writing application                      : VirtualDubMod 1.5.10.3 | www.virtualdub-fr.org || (build 2550/release)
Writing library                          : VirtualDubMod build 2550/release
Video
ID                                       : 0
Format                                   : MPEG-4 Visual
Format profile                           : Advanced Simple@L5
Format settings, BVOP                    : 1
Format settings, QPel                    : No
Format settings, GMC                     : No warppoints
Format settings, Matrix                  : Custom
Codec ID                                 : XVID
Codec ID/Hint                            : XviD
Duration                                 : 1h 46mn
Bit rate                                 : 1 568 Kbps
Width                                    : 720 pixels
Height                                   : 304 pixels
Display aspect ratio                     : 2.35:1
Frame rate                               : 24.000 fps
Color space                              : YUV
Chroma subsampling                       : 4:2:0
Bit depth                                : 8 bits
Scan type                                : Progressive
Compression mode                         : Lossy
Bits/(Pixel*Frame)                       : 0.299
Stream size                              : 1.17 GiB (80%)
Writing library                          : XviD 73
Audio #1
ID                                       : 1
Format                                   : AC-3
Format/Info                              : Audio Coding 3
Mode extension                           : CM (complete main)
Format settings, Endianness              : Big
Codec ID                                 : 2000
Duration                                 : 1h 46mn
Bit rate mode                            : Constant
Bit rate                                 : 192 Kbps
Channel(s)                               : 2 channels
Channel positions                        : Front: L R
Sampling rate                            : 48.0 KHz
Bit depth                                : 16 bits
Compression mode                         : Lossy
Stream size                              : 146 MiB (10%)
Alignment                                : Split accross interleaves
Interleave, duration                     : 42 ms (1.00 video frame)
Interleave, preload duration             : 500 ms
Audio #2
ID                                       : 2
Format                                   : AC-3
Format/Info                              : Audio Coding 3
Mode extension                           : CM (complete main)
Format settings, Endianness              : Big
Codec ID                                 : 2000
Duration                                 : 1h 46mn
Bit rate mode                            : Constant
Bit rate                                 : 192 Kbps
Channel(s)                               : 2 channels
Channel positions                        : Front: L R
Sampling rate                            : 48.0 KHz
Bit depth                                : 16 bits
Compression mode                         : Lossy
Stream size                              : 146 MiB (10%)
Alignment                                : Split accross interleaves
Interleave, duration                     : 42 ms (1.00 video frame)
Interleave, preload duration             : 500 ms
Благодарности
Цитата:
Запись СТС - Slim9174
Запись НТВ+ и синхронизация двух дорог - moon_c@t
Сравнение
[url=http://***/forum/viewtopic.php?t=1561483]http://***/forum/viewtopic.php?t=1561483[/url] - Интерфильм не проф. озвучка
http://screenshotcomparison.com/comparison/114878-[url=http://***/forum/viewtopic.php?t=4386577]http://***/forum/viewtopic.php?t=4386577[/url]
[url=http://***/forum/viewtopic.php?t=1952863]http://***/forum/viewtopic.php?t=1952863[/url] - Любительский
http://screenshotcomparison.com/comparison/114879-[url=http://***/forum/viewtopic.php?t=2660924]http://***/forum/viewtopic.php?t=2660924[/url]
http://screenshotcomparison.com/comparison/114880-Во всех рипах конкурентов плавающий кроп
-
Скачать

Скачать торрент! Ип Ман / Yip Man (Уилсон Ип / Wilson Yip) [2008, Китай, Боевик, драма, биография, спорт, BDRip] MVO (СТС) + DVO (НТВ) + AVO (Сербин)

Как скачивать? · Что такое торрент? · Рейтинг и ограничения

Сайт не распространяет и не хранит электронные версии произведений, а лишь предоставляет доступ к создаваемому пользователями каталогу ссылок на торрент-файлы, которые содержат только списки хеш-сумм

[Профиль] [ЛС]
Показать сообщения:    
Ответить на тему

Текущее время: Сегодня 11:27

Часовой пояс: GMT + 4



Вы не можете начинать темы
Вы не можете отвечать на сообщения
Вы не можете редактировать свои сообщения
Вы не можете удалять свои сообщения
Вы не можете голосовать в опросах
Вы не можете прикреплять файлы к сообщениям
Вы не можете скачивать файлы