Человек-пуля / The Human Bullet / Nikudan (Кихати Окамото / Kihachi Okamoto) [1968, Япония, ироническая трагедия, DVDRip] Sub Rus

Ответить на тему
 
Автор Сообщение

user ®

Стаж: 10 лет

Сообщений: 18988

Пост Пост: #1 от 08-Мар-2015 01:27

[Цитировать]

Человек-пуля / The Human Bullet / Nikudan / 肉弾
Страна: Япония
Жанр: ироническая трагедия
Год выпуска: 1968
Продолжительность: 01:56:21
Перевод: Субтитры русские - [url=http://***/forum/tracker.php?rid=6473541]дед_сто_лет[/url]©
Cубтитры: русские
Оригинальная аудиодорожка: японский
Режиссер: [url=http://***/forum/tracker.php?nm=Kihachi%20Okamoto]Кихати Окамото / Kihachi Okamoto[/url]
В ролях: Минори ТЭРАДА, Наоко ОТАНИ, Юноскэ ИТО, Сёити ОДЗАВА, Куниэ ТАНАКА, Тисю РЮ
Рассказчик - Тацуя НАКАДАЙ
Описание: 21 летний Тайдзаку Сакура в последние дни войны готовится в отряд смертников. Все происходящее бессмысленно: его прошлое, его настоящее и его будущее. Можно ходить голым, читать библию, любить женщин, решать задачи по математике, плавать верхом на торпеде. Все это неважно по сравнению с бессмысленностью войны и её жестокими жертвами. Во многих описаниях фильм представляется, как комедия - все это, действительно, смешно. Кихати Окамото часто называли автором коммерческого кино. Эта лента перечеркивает все уничижительные слова в его адрес.
Я давно собирался представить этот фильм, но никак не хватало духу пережить снова такой ужас. И вот в прокат выходит российский блокбастер - "Батальонъ", героический фильм о героических женщинах в героическую эпоху. Мне захотелось противопоставить этому героизму истинное лицо войны.©
> > > > > > >
Качество видео: DVDRip
Формат видео: AVI
Видео: 720x544 (1.32:1), 23.976 fps, XviD build 50 ~1557 kbps avg, 0.17 bit/pixel
Аудио: 48 kHz, MPEG Layer 3, 2 ch, ~192.00 kbps avg
Формат субтитров: softsub (SRT)
Доп. информация о субтитрах: дед_сто_лет
Пример субтитров
339
00:25:43,910 --> 00:25:45,070
Где он находится?
340
00:25:45,180 --> 00:25:46,330
Бордель?
341
00:25:46,780 --> 00:25:50,430
Урод! В первый раз в жизни у
меня спрашивают такую вещь.
342
00:25:50,710 --> 00:25:52,770
У меня это тоже в первый раз.
343
00:25:53,280 --> 00:25:56,420
В любом случае сегодня мой
первый и последний выходной.
344
00:25:56,680 --> 00:25:58,160
Ладно, я скажу тебе.
345
00:25:58,850 --> 00:26:00,230
Постой.
346
00:26:00,800 --> 00:26:02,260
А что у тебя за книга?
347
00:26:02,600 --> 00:26:04,380
Она иностранная?
348
00:26:04,620 --> 00:26:06,980
Это японский перевод
Святого Писания.
349
00:26:07,000 --> 00:26:08,777
"Мужского касания"?
350
00:26:09,240 --> 00:26:12,940
Ах ты поганец. Ты и в этом новичок?
351
00:26:13,040 --> 00:26:15,160
Ну, да.
352
00:26:15,270 --> 00:26:18,020
Об этом не прочитаешь в руководстве.
353
00:26:18,110 --> 00:26:22,179
Это как на войне. Ты заряжаешь ружье
и отправляешься с ним на врага.
354
00:26:22,180 --> 00:26:24,550
И враги похожи на
Богиню Милосердия?
355
00:26:25,190 --> 00:26:27,710
Богиню Милосердия?
Что за чепуха!
356
00:26:27,810 --> 00:26:29,460
Они похожи на ведьм!
357
00:26:30,690 --> 00:26:32,790
Значит, у вас первый раз был неудачным...
358
00:26:32,880 --> 00:26:34,000
Что?
359
00:26:34,090 --> 00:26:38,060
Я хочу сказать, что по вашему мнению
первый раз очень важен?
360
00:26:38,430 --> 00:26:40,850
Безусловно! Действуй!
361
00:26:42,680 --> 00:26:45,520
Вы не могли бы сказать,
как туда добраться?
MediaInfo
General
Complete name : C:\Torrents\[ASIA]\Nikudan(1968)Okamoto\Nikudan(1968)Okamoto.avi
Format : AVI
Format/Info : Audio Video Interleave
File size : 1.43 GiB
Duration : 1h 56mn
Overall bit rate : 1 759 Kbps
Video
ID : 0
Format : MPEG-4 Visual
Format profile : Advanced Simple@L5
Format settings, BVOP : 1
Format settings, QPel : No
Format settings, GMC : No warppoints
Format settings, Matrix : Custom
Codec ID : XVID
Codec ID/Hint : XviD
Duration : 1h 56mn
Bit rate : 1 558 Kbps
Width : 720 pixels
Height : 544 pixels
Display aspect ratio : 4:3
Frame rate : 23.976 fps
Color space : YUV
Chroma subsampling : 4:2:0
Bit depth : 8 bits
Scan type : Progressive
Compression mode : Lossy
Bits/(Pixel*Frame) : 0.166
Stream size : 1.27 GiB (89%)
Writing library : XviD 1.2.1 (UTC 2008-12-04)
Audio
ID : 1
Format : MPEG Audio
Format version : Version 1
Format profile : Layer 3
Mode : Joint stereo
Mode extension : MS Stereo
Codec ID : 55
Codec ID/Hint : MP3
Duration : 1h 56mn
Bit rate mode : Constant
Bit rate : 192 Kbps
Channel(s) : 2 channels
Sampling rate : 48.0 KHz
Compression mode : Lossy
Stream size : 160 MiB (11%)
Alignment : Aligned on interleaves
Interleave, duration : 42 ms (1.00 video frame)
Writing library : LAME3.98.2ЄЄЄЄЄЄЄЄЄЄ
Скриншот c названием фильма Скриншоты
Скачать

Скачать торрент!

Как скачивать? · Что такое торрент? · Рейтинг и ограничения

Сайт не распространяет и не хранит электронные версии произведений, а лишь предоставляет доступ к создаваемому пользователями каталогу ссылок на торрент-файлы, которые содержат только списки хеш-сумм

загрузка...
[Профиль] [ЛС]

Leonardo

Стаж: 4 месяца 28 дней

Сообщений: 1

Пост Пост: #2 от 27-Дек-2018 05:14 (спустя 3 года 9 месяцев)

[Цитировать]

Thank you!
[Профиль] [ЛС]
Показать сообщения:    
Ответить на тему

Текущее время: Сегодня 06:53

Часовой пояс: GMT + 4



Вы не можете начинать темы
Вы не можете отвечать на сообщения
Вы не можете редактировать свои сообщения
Вы не можете удалять свои сообщения
Вы не можете голосовать в опросах
Вы не можете прикреплять файлы к сообщениям
Вы не можете скачивать файлы