Замученная / Кролик ужаса / Rabitto hora / Tormented / The Rabbit Horror (Такаси Симидзу / Takashi Shimizu) [2011, Япония, Нидерланды, ужасы, триллер, HDRip] DVO (DeadSno & den904)

Ответить на тему
 
Автор Сообщение

user ®

Стаж: 13 лет

Сообщений: 15071

Пост Пост: #1 от 07-Мар-2015 19:18

[Цитировать]

Замученная / Кролик ужаса / Rabitto hora 3D / Tormented / The Rabbit Horror
Страна: Япония, Нидерланды
Студия: Dentsu, Epic Records, Fortissimo Film и др.
Жанр: ужасы, триллер
Год выпуска: 2011
Продолжительность: 01:23:01
Перевод: Любительский (двухголосый закадровый) DeadSno & den904
Cубтитры: нет
Оригинальная аудиодорожка: нет
Режиссер: Такаси Симидзу / Takashi Shimizu
В ролях: Хикари Мицусима, Такэру Сибуя, Тамаки Огава, Нао Омори, Тэруюки Кагава, Момоко Танабэ
Описание: Героиня отправляется в альтернативную реальность, чтобы спасти своего маленького брата, которого утащил туда плюшевый кролик в отместку за то, что мальчик убил в школе настоящего кролика. Однако причины и следствия событий фильма переплетаются в такой тугой узел, что понять, где тут явь, а где химера, порой становится затруднительно..
Релиз от -
Сэмпл: http://multi-up.com/1036938
Тип релиза: HDRip / BDRip 1080p
Контейнер: AVI
Видео: XviD, 1051 kbps, 656 х 352 pixels, 23.976 fps
Аудио: AC3, 192 Kbps, 2 channels, Front: L R, 48.0 KHz, 16 bits

MediaInfo
General
Complete name : D:\Rabbit.Horror.2011.HDRip.745mb.avi
Format : AVI
Format/Info : Audio Video Interleave
File size : 744 MiB
Duration : 1h 23mn
Overall bit rate : 1 252 Kbps
Writing application : VirtualDubMod 1.5.10.3 | www.virtualdub-fr.org || (build 2550/release)
Writing library : VirtualDubMod build 2550/release
Video
ID : 0
Format : MPEG-4 Visual
Format profile : Advanced Simple@L5
Format settings, BVOP : 1
Format settings, QPel : No
Format settings, GMC : No warppoints
Format settings, Matrix : Custom
Codec ID : XVID
Codec ID/Hint : XviD
Duration : 1h 23mn
Bit rate : 1 051 Kbps
Width : 656 pixels
Height : 352 pixels
Display aspect ratio : 1.85:1
Frame rate : 23.976 fps
Color space : YUV
Chroma subsampling : 4:2:0
Bit depth : 8 bits
Scan type : Progressive
Compression mode : Lossy
Bits/(Pixel*Frame) : 0.190
Stream size : 624 MiB (84%)
Writing library : XviD 73
Audio
ID : 1
Format : AC-3
Format/Info : Audio Coding 3
Mode extension : CM (complete main)
Format settings, Endianness : Big
Codec ID : 2000
Duration : 1h 23mn
Bit rate mode : Constant
Bit rate : 192 Kbps
Channel(s) : 2 channels
Channel positions : Front: L R
Sampling rate : 48.0 KHz
Bit depth : 16 bits
Compression mode : Lossy
Stream size : 114 MiB (15%)
Alignment : Split accross interleaves
Interleave, duration : 42 ms (1.00 video frame)
Interleave, preload duration : 500 ms
Скриншоты
Скачать

Скачать торрент! Замученная / Кролик ужаса / Rabitto hora / Tormented / The Rabbit Horror (Такаси Симидзу / Takashi Shimizu) [2011, Япония, Нидерланды, ужасы, триллер, HDRip] DVO (DeadSno & den904)

Как скачивать? · Что такое торрент? · Рейтинг и ограничения

Сайт не распространяет и не хранит электронные версии произведений, а лишь предоставляет доступ к создаваемому пользователями каталогу ссылок на торрент-файлы, которые содержат только списки хеш-сумм

[Профиль] [ЛС]
Показать сообщения:    
Ответить на тему

Текущее время: Сегодня 16:43

Часовой пояс: GMT + 4



Вы не можете начинать темы
Вы не можете отвечать на сообщения
Вы не можете редактировать свои сообщения
Вы не можете удалять свои сообщения
Вы не можете голосовать в опросах
Вы не можете прикреплять файлы к сообщениям
Вы не можете скачивать файлы