Невидимки (Сергей Комаров) [2013, Россия, комедия, фантастика, WEB-DL 1080p] + Original Rus

Ответить на тему
 
Автор Сообщение

user ®

Стаж: 7 лет 7 месяцев

Сообщений: 20008

Пост Пост: #1 от 07-Мар-2015 16:15

[Цитировать]

Невидимки
Страна: Россия
Жанр: комедия, фантастика
Год выпуска: 2013
Продолжительность: 01:29:51
Перевод: Не требуется
Cубтитры: нет
Оригинальная аудиодорожка: русский
Режиссер: Сергей Комаров
В ролях: Илья Любимов, Екатерина Гусева,Гоша Куценко, Андрей Мерзликин, Ирина Розанова, Иван Чуваткин, Вера Борисенкова, Зураб Гурцкая, Владимир Дыховичный, Петр Винс
Описание: В канун Нового года удивительное событие навсегда меняет жизнь главного героя: он становится невидимкой! Правда, понимает он это не сразу, так как уже привык к тому, что его никто не замечает и не принимает всерьез. Очень быстро войдя во вкус новой жизни и своих супер способностей, он вдруг обнаруживает, что он такой не один!
Сэмпл: http://multi-up.com/1036752
Тип релиза: WEB-DL 1080p
Контейнер: MKV
Видео: MPEG4 Video (H264) 1916 x 800p, ~ 4452 kbps, 24 fps, 0.121 bit/pixel
Аудио: AC-3, 6 канала, 48,0 КГц, ~384 kbps itunes Russia
Релиз от:
M.I.
Общее
Уникальный идентификатор : 183928861935080840866704691970395738459 (0x8A5F69085BA96CD1BC151CDAB0CA115B)
Полное имя : D:\NEVIDIMKI\NEVIDIMKI_WEB_DL_1080p-BLUEBIRD.mkv
Формат : Matroska
Версия формата : Version 4 / Version 2
Размер файла : 3,10 Гбайт
Продолжительность : 1 ч. 29 м.
Общий поток : 4934 Кбит/сек
Название фильма : NEVIDIMKI_WEB_DL_1080p-BLUEBIRD
Дата кодирования : UTC 2015-03-05 23:59:19
Программа кодирования : mkvmerge v7.1.0 ('Good Love') 64bit built on Jul 27 2014 13:06:55
Библиотека кодирования : libebml v1.3.0 + libmatroska v1.4.1
DURATION : 01:29:51.936000000
NUMBER_OF_FRAMES : 168498
NUMBER_OF_BYTES : 258812928
_STATISTICS_WRITING_APP : mkvmerge v7.1.0 ('Good Love') 64bit built on Jul 27 2014 13:06:55
_STATISTICS_WRITING_DATE_UTC : 2015-03-05 23:59:19
_STATISTICS_TAGS : BPS DURATION NUMBER_OF_FRAMES NUMBER_OF_BYTES
Видео
Идентификатор : 1
Формат : AVC
Формат/Информация : Advanced Video Codec
Профиль формата : High@L4.0
Параметр CABAC формата : Да
Параметр ReFrames формата : 5 кадров
Идентификатор кодека : V_MPEG4/ISO/AVC
Продолжительность : 1 ч. 29 м.
Битрейт : 4452 Кбит/сек
Ширина : 1916 пикселей
Высота : 800 пикселей
Соотношение сторон : 2,40:1
Режим частоты кадров : Постоянный
Частота кадров : 24,000 кадра/сек
Цветовое пространство : YUV
Субдискретизация насыщенности : 4:2:0
Битовая глубина : 8 бит
Тип развёртки : Прогрессивная
Бит/(Пиксели*Кадры) : 0.121
Размер потока : 2,79 Гбайт (90%)
Заголовок : NEVIDIMKI_WEB_DL_1080p-BLUEBIRD
Язык : Russian
Default : Да
Forced : Нет
Основные цвета : BT.709
Характеристики трансфера : BT.709
Коэффициенты матрицы : BT.709
colour_range : Limited
Аудио
Идентификатор : 2
Формат : AC-3
Формат/Информация : Audio Coding 3
Расширение режима : CM (complete main)
Параметр Endianness формата : Big
Идентификатор кодека : A_AC3
Продолжительность : 1 ч. 29 м.
Вид битрейта : Постоянный
Битрейт : 384 Кбит/сек
Каналы : 6 каналов
Расположение каналов : Front: L C R, Side: L R, LFE
Частота : 48,0 КГц
Битовая глубина : 16 бит
Метод сжатия : С потерями
Размер потока : 247 Мбайт (8%)
Заголовок : [ORIGINAL] DD 5.1 @ 384 kbps
Язык : Russian
Default : Да
Forced : Нет
Меню
00:00:00.000 : en:1
00:06:16.000 : en:2
00:11:55.000 : en:3
00:17:14.000 : en:4
00:22:13.000 : en:5
00:27:47.000 : en:6
00:32:48.000 : en:7
00:39:04.000 : en:8
00:45:59.000 : en:9
00:53:02.000 : en:10
00:59:57.000 : en:11
01:05:37.000 : en:12
01:11:00.000 : en:13
01:17:11.000 : en:14
01:23:25.000 : en:15
Скриншоты
Скачать

Скачать торрент!

Как скачивать? · Что такое торрент? · Рейтинг и ограничения

Сайт не распространяет и не хранит электронные версии произведений, а лишь предоставляет доступ к создаваемому пользователями каталогу ссылок на торрент-файлы, которые содержат только списки хеш-сумм

[Профиль] [ЛС]
Показать сообщения:    
Ответить на тему

Текущее время: Сегодня 22:34

Часовой пояс: GMT + 4



Вы не можете начинать темы
Вы не можете отвечать на сообщения
Вы не можете редактировать свои сообщения
Вы не можете удалять свои сообщения
Вы не можете голосовать в опросах
Вы не можете прикреплять файлы к сообщениям
Вы не можете скачивать файлы