Слава / Fame (Алан Паркер / Alan Parker) [1980, США, мюзикл, драма, музыка, BDRip 1080p] AVO (А. Михалев) + Sub Eng + Original Eng

Ответить на тему
 
Автор Сообщение

user ®

Стаж: 7 лет 7 месяцев

Сообщений: 20008

Пост Пост: #1 от 07-Мар-2015 16:15

[Цитировать]

Слава / Fame
Страна: США
Студия: Metro-Goldwyn-Mayer (MGM)
Жанр: мюзикл, драма, музыка
Год выпуска: 1980
Продолжительность: 02:13:35
Перевод: Авторский (одноголосый закадровый) А. Михалев
Cубтитры: английские
Оригинальная аудиодорожка: английский
Режиссер: Алан Паркер / Alan Parker
В ролях: Эдди Барт, Ирена Кара, Ли Каррери, Лаура Дин, Антония Франчески, Бойд Гейнс, Альберт Хэйг, Тереза Хьюз, Стив Инвуд, Пол МакКрейн
Описание: В основе сюжета лежат события, которые разворачиваются в нью-йоркской школе исполнительного искусства, где талантливые подростки проходят обучение на пути к славе.

Сэмпл: http://multi-up.com/1036726
Тип релиза: BDRip 1080p
Контейнер: MKV
Видео: MPEG4 Video (H264) 1920x1080 23.976fps 12.5 Mbps
Аудио: Русский DTS / 6 ch / 48.0 KHz / 1 509 Kbps / А. Михалев
Аудио 2: English DTS / 6 ch / 48.0 KHz / 1 509 Kbps / Original
Аудио 3: English AC-3 / 2 ch / 48.0 KHz / 192 Kbps / Commentary
Формат субтитров: softsub (SRT)

MediaInfo
General
Unique ID : 231641041363975637663391411720964700332 (0xAE4471193A4296D7809D0CE7CC2278AC)
Complete name : C:\Users\Вика\Desktop\Fame.1980.BDRip.1080p.mkv
Format : Matroska
Format version : Version 4 / Version 2
File size : 14.7 GiB
Duration : 2h 13mn
Overall bit rate : 15.7 Mbps
Encoded date : UTC 2015-03-06 04:07:42
Writing application : mkvmerge v7.4.0 ('Circles') 64bit built on Dec 12 2014 12:19:56
Writing library : libebml v1.3.0 + libmatroska v1.4.1
_STATISTICS_WRITING_APP : mkvmerge v7.4.0 ('Circles') 64bit built on Dec 12 2014 12:19:56
_STATISTICS_WRITING_DATE_UTC : 2015-03-06 04:07:42
_STATISTICS_TAGS : BPS DURATION NUMBER_OF_FRAMES NUMBER_OF_BYTES
DURATION : 02:08:46.025000000
NUMBER_OF_FRAMES : 1520
NUMBER_OF_BYTES : 59935
Video
ID : 1
Format : AVC
Format/Info : Advanced Video Codec
Format profile : High@L4.1
Format settings, CABAC : Yes
Format settings, ReFrames : 4 frames
Codec ID : V_MPEG4/ISO/AVC
Duration : 2h 13mn
Bit rate : 12.5 Mbps
Width : 1 920 pixels
Height : 1 080 pixels
Display aspect ratio : 16:9
Frame rate mode : Constant
Frame rate : 23.976 fps
Color space : YUV
Chroma subsampling : 4:2:0
Bit depth : 8 bits
Scan type : Progressive
Bits/(Pixel*Frame) : 0.251
Stream size : 11.4 GiB (78%)
Title : MPEG-4AVC@High Profile L4.1, 24/1.001 fps @ 12500 kbps
Writing library : x264 core 142 r2491 24e4fed
Encoding settings : cabac=1 / ref=4 / deblock=1:-3:-3 / analyse=0x3:0x133 / me=umh / subme=11 / psy=1 / psy_rd=1.00:0.00 / mixed_ref=1 / me_range=32 / chroma_me=1 / trellis=2 / 8x8dct=1 / cqm=0 / deadzone=21,11 / fast_pskip=0 / chroma_qp_offset=-2 / threads=6 / lookahead_threads=1 / sliced_threads=0 / nr=0 / decimate=0 / interlaced=0 / bluray_compat=0 / constrained_intra=0 / bframes=6 / b_pyramid=2 / b_adapt=2 / b_bias=0 / direct=3 / weightb=1 / open_gop=0 / weightp=2 / keyint=240 / keyint_min=23 / scenecut=40 / intra_refresh=0 / rc_lookahead=60 / rc=2pass / mbtree=1 / bitrate=12500 / ratetol=1.0 / qcomp=0.60 / qpmin=0 / qpmax=69 / qpstep=4 / cplxblur=20.0 / qblur=0.5 / vbv_maxrate=45000 / vbv_bufsize=45000 / nal_hrd=none / filler=0 / ip_ratio=1.40 / aq=1:0.60
Language : English
Default : Yes
Forced : No
_STATISTICS_WRITING_APP : mkvmerge v7.4.0 ('Circles') 64bit built on Dec 12 2014 12:19:56
_STATISTICS_WRITING_DATE_UTC : 2015-03-06 04:07:42
_STATISTICS_TAGS : BPS DURATION NUMBER_OF_FRAMES NUMBER_OF_BYTES
DURATION : 02:13:34.674000000
NUMBER_OF_FRAMES : 192160
NUMBER_OF_BYTES : 12519322730
Audio #1
ID : 2
Format : DTS
Format/Info : Digital Theater Systems
Mode : 16
Format settings, Endianness : Big
Codec ID : A_DTS
Duration : 2h 13mn
Bit rate mode : Constant
Bit rate : 1 509 Kbps
Channel(s) : 6 channels
Channel positions : Front: L C R, Side: L R, LFE
Sampling rate : 48.0 KHz
Bit depth : 16 bits
Compression mode : Lossy
Stream size : 1.41 GiB (10%)
Title : AVO (А. Михалев)
Language : Russian
Default : Yes
Forced : No
Audio #2
ID : 3
Format : DTS
Format/Info : Digital Theater Systems
Mode : 16
Format settings, Endianness : Big
Codec ID : A_DTS
Duration : 2h 13mn
Bit rate mode : Constant
Bit rate : 1 509 Kbps
Channel(s) : 6 channels
Channel positions : Front: L C R, Side: L R, LFE
Sampling rate : 48.0 KHz
Bit depth : 16 bits
Compression mode : Lossy
Stream size : 1.41 GiB (10%)
Title : English Digital Theater Systems 5.1 @ 1509 kbps
Language : English
Default : No
Forced : No
Audio #3
ID : 4
Format : AC-3
Format/Info : Audio Coding 3
Format profile : Dolby Digital
Mode extension : CM (complete main)
Format settings, Endianness : Big
Codec ID : A_AC3
Duration : 2h 13mn
Bit rate mode : Constant
Bit rate : 192 Kbps
Channel(s) : 2 channels
Channel positions : Front: L R
Sampling rate : 48.0 KHz
Bit depth : 16 bits
Compression mode : Lossy
Stream size : 183 MiB (1%)
Title : English Dolby Digital Audio 2.0 @ 192 kbps Commentary
Language : English
Default : No
Forced : No
Text
ID : 5
Format : UTF-8
Codec ID : S_TEXT/UTF8
Codec ID/Info : UTF-8 Plain Text
Language : English
Default : No
Forced : No
Menu
00:00:00.000 : en:00:00:00.000
00:01:12.239 : en:00:01:12.239
00:05:44.970 : en:00:05:44.970
00:12:29.624 : en:00:12:29.624
00:16:48.090 : en:00:16:48.090
00:21:00.301 : en:00:21:00.301
00:22:54.248 : en:00:22:54.248
00:27:08.669 : en:00:27:08.669
00:32:09.219 : en:00:32:09.219
00:35:48.605 : en:00:35:48.605
00:40:04.235 : en:00:40:04.235
00:42:17.201 : en:00:42:17.201
00:45:50.081 : en:00:45:50.081
00:50:17.765 : en:00:50:17.765
00:51:58.657 : en:00:51:58.657
00:56:40.814 : en:00:56:40.814
00:59:46.792 : en:00:59:46.792
01:03:01.778 : en:01:03:01.778
01:07:33.383 : en:01:07:33.383
01:11:52.558 : en:01:11:52.558
01:16:33.672 : en:01:16:33.672
01:20:03.007 : en:01:20:03.007
01:24:02.955 : en:01:24:02.955
01:27:31.121 : en:01:27:31.121
01:35:04.449 : en:01:35:04.449
01:36:52.974 : en:01:36:52.974
01:38:49.090 : en:01:38:49.090
01:40:51.754 : en:01:40:51.754
01:43:25.324 : en:01:43:25.324
01:45:11.972 : en:01:45:11.972
01:49:03.454 : en:01:49:03.454
01:52:14.186 : en:01:52:14.186
01:54:53.053 : en:01:54:53.053
01:58:47.495 : en:01:58:47.495
02:02:49.612 : en:02:02:49.612
02:05:11.170 : en:02:05:11.170
02:10:39.123 : en:02:10:39.123
Скриншоты
Скачать

Скачать торрент!

Как скачивать? · Что такое торрент? · Рейтинг и ограничения

Сайт не распространяет и не хранит электронные версии произведений, а лишь предоставляет доступ к создаваемому пользователями каталогу ссылок на торрент-файлы, которые содержат только списки хеш-сумм

[Профиль] [ЛС]
Показать сообщения:    
Ответить на тему

Текущее время: Сегодня 11:39

Часовой пояс: GMT + 4



Вы не можете начинать темы
Вы не можете отвечать на сообщения
Вы не можете редактировать свои сообщения
Вы не можете удалять свои сообщения
Вы не можете голосовать в опросах
Вы не можете прикреплять файлы к сообщениям
Вы не можете скачивать файлы