Червовая дама / Dame de coeur (Шарлотта Брандстром / Charlotte Brandstrom) [2010, Франция, триллер, детектив, HDTV 1080i] DVO (ТПО Ред Медиа)

Ответить на тему
 
Автор Сообщение

user ®

Стаж: 7 лет 7 месяцев

Сообщений: 20008

Пост Пост: #1 от 07-Мар-2015 16:15

[Цитировать]

Червовая дама / Dame de coeur
Страна: Франция
Студия: Dragons Films
Жанр: триллер, детектив
Год выпуска: 2010
Продолжительность: 01:36:37
Перевод: Профессиональный (двухголосый закадровый) ТПО Ред Медиа
Cубтитры: нет
Оригинальная аудиодорожка: нет
Режиссер: Шарлотта Брандстром / Charlotte Brandstrom
В ролях: Тьерри Годар, Чарли Фуке, Жан-Бернар Туссен, Софи-Шарлотта Хассон, Клара Понсо, Валери Декоберт-Корецки
Описание:
Мартен - полицейский. Начальник отдела в уголовном розыске. Когда Мириам, его бывшая супруга, сообщает ему, что она собирается вновь выйти замуж, когда ее дочь, Иза,объявляет, что она беременная и что жених ее покинул, и когда Мэрайон, его новая подруга, говорит, что он не очень хороший полицейский, он начинает волноваться. Но, сейчас не до этого. Красивая молодая женщина с бледной кожей, обнаружена убитая на улице.
Фильм «Червовая дама» (Dame de coeur) – криминальная картина из цикла, автором сценария которого является писатель Алексис Лекайе. Вслед за этой лентой вышел детектив «Пиковая дама».

Сэмпл: http://multi-up.com/1036819
Тип релиза: HDTV 1080i
Контейнер: MKV
Видео: AVC, 1920x1080, (16:9), 25 fps, 6.9 Mbps
Аудио: Русский, MP2, 48 kHz, 2 ch, 192 kbps
MediaInfo
General
Unique ID : 210065603959987051450976287207830733425 (0x9E0929E7EE47CE2580A8BA06282A4271)
Complete name : C:\Червовая Дама_2010_HDTV 1080i_RU_ -dean10.mkv
Format : Matroska
Format version : Version 4 / Version 2
File size : 4.89 GiB
Duration : 1h 36mn
Overall bit rate : 7 248 Kbps
Encoded date : UTC 2015-03-06 14:59:01
Writing application : mkvmerge v7.7.0 ('Six Voices') 64bit built on Feb 28 2015 23:39:33
Writing library : libebml v1.3.1 + libmatroska v1.4.2
DURATION : 01:36:37.368000000
NUMBER_OF_FRAMES : 241557
NUMBER_OF_BYTES : 139136832
_STATISTICS_WRITING_APP : mkvmerge v7.7.0 ('Six Voices') 64bit built on Feb 28 2015 23:39:33
_STATISTICS_WRITING_DATE_UTC : 2015-03-06 14:59:01
_STATISTICS_TAGS : BPS DURATION NUMBER_OF_FRAMES NUMBER_OF_BYTES
Video
ID : 1
Format : AVC
Format/Info : Advanced Video Codec
Format profile : High@L4.0
Format settings, CABAC : Yes
Format settings, ReFrames : 4 frames
Codec ID : V_MPEG4/ISO/AVC
Duration : 1h 36mn
Bit rate : 6 912 Kbps
Width : 1 920 pixels
Height : 1 080 pixels
Display aspect ratio : 16:9
Frame rate mode : Constant
Frame rate : 25.000 fps
Standard : Component
Color space : YUV
Chroma subsampling : 4:2:0
Bit depth : 8 bits
Scan type : Interlaced
Scan order : Top Field First
Bits/(Pixel*Frame) : 0.133
Stream size : 4.66 GiB (95%)
Default : Yes
Forced : No
Color primaries : BT.709
Transfer characteristics : BT.709
Matrix coefficients : BT.709
Color range : Limited
Audio
ID : 2
Format : MPEG Audio
Format version : Version 1
Format profile : Layer 2
Codec ID : A_MPEG/L2
Codec ID/Hint : MP2
Duration : 1h 36mn
Bit rate mode : Constant
Bit rate : 192 Kbps
Channel(s) : 2 channels
Sampling rate : 48.0 KHz
Compression mode : Lossy
Stream size : 133 MiB (3%)
Language : Russian
Default : Yes
Forced : No
Скриншоты
Скачать

Скачать торрент!

Как скачивать? · Что такое торрент? · Рейтинг и ограничения

Сайт не распространяет и не хранит электронные версии произведений, а лишь предоставляет доступ к создаваемому пользователями каталогу ссылок на торрент-файлы, которые содержат только списки хеш-сумм

[Профиль] [ЛС]
Показать сообщения:    
Ответить на тему

Текущее время: Сегодня 22:34

Часовой пояс: GMT + 4



Вы не можете начинать темы
Вы не можете отвечать на сообщения
Вы не можете редактировать свои сообщения
Вы не можете удалять свои сообщения
Вы не можете голосовать в опросах
Вы не можете прикреплять файлы к сообщениям
Вы не можете скачивать файлы